Legend Of The Guardians 2010 x264 720p Esub BluRay Dual Audio English Hindi THE GOPI SAHI

Legend of the Guardians: The Owls of Ga'Hoole (2010)

 

When a young owl is abducted by an evil Owl army, he must escape with new-found friends and seek the legendary Guardians to stop the menace.
EN

Director:

Zack Snyder

Writers:

John Orloff (screenplay), Emil Stern (screenplay) | 1 more credit »
 
6.9/10

78,965

 

Directed byZack Snyder
Produced byZareh Nalbandian
Screenplay by
Based onGuardians of Ga'Hoole
by Kathryn Lasky
Starring
Music byDavid Hirschfelder
Edited byDavid Burrows
Production
companies
Distributed by
Release date
  • September 24, 2010 (North America)
Running time
97 minutes[2]
Countries
LanguageEnglish
Budget$80 million[5]
Box office$140.1 million[6]


Legend Of The Guardians 2010 x264 720p Esub BluRay Dual Audio English Hindi THE GOPI SAHI


Format                         : Matroska
Format version                 : Version 4
File size                      : 820 MiB
Duration                       : 1 h 36 min
Overall bit rate               : 1 184 kb/s
Movie name                     : Legend Of The Guardians 2010 GOPI SAHI
Encoded date                   : UTC 2021-04-22 02:33:36

Video
ID                             : 1
Format                         : AVC
Format/Info                    : Advanced Video Codec
Format profile                 : [email protected]
Format settings                : CABAC / 5 Ref Frames
Format settings, CABAC         : Yes
Format settings, Reference fra : 5 frames
Codec ID                       : V_MPEG4/ISO/AVC
Duration                       : 1 h 36 min
Bit rate                       : 899 kb/s
Width                          : 1 280 pixels
Height                         : 544 pixels
Display aspect ratio           : 2.35:1
Frame rate mode                : Constant
Frame rate                     : 23.976 (24000/1001) FPS
Color space                    : YUV
Chroma subsampling             : 4:2:0
Bit depth                      : 8 bits
Scan type                      : Progressive
Bits/(Pixel*Frame)             : 0.054
Stream size                    : 622 MiB (76%)
Title                          : GOPI SAHI
Writing library                : x264 core 157 r2935 545de2f

Audio #1
ID                             : 2
Format                         : AAC LC
Format/Info                    : Advanced Audio Codec Low Complexity
Codec ID                       : A_AAC-2
Duration                       : 1 h 36 min
Bit rate                       : 129 kb/s
Channel(s)                     : 2 channels
Channel layout                 : L R
Sampling rate                  : 48.0 kHz
Frame rate                     : 46.875 FPS (1024 SPF)
Compression mode               : Lossy
Delay relative to video        : -64 ms
Stream size                    : 89.0 MiB (11%)
Title                          : GOPI SAHI
Language                       : English
Default                        : Yes
Forced                         : No

Audio #2
ID                             : 3
Format                         : AAC LC
Format/Info                    : Advanced Audio Codec Low Complexity
Codec ID                       : A_AAC-2
Duration                       : 1 h 36 min
Bit rate                       : 129 kb/s
Channel(s)                     : 2 channels
Channel layout                 : L R
Sampling rate                  : 48.0 kHz
Frame rate                     : 46.875 FPS (1024 SPF)
Compression mode               : Lossy
Delay relative to video        : -64 ms
Stream size                    : 89.0 MiB (11%)
Title                          : GOPI SAHI
Language                       : Hindi
Default                        : No
Forced                         : No

Text
ID                             : 4
Format                         : PGS
Muxing mode                    : zlib
Codec ID                       : S_HDMV/PGS
Codec ID/Info                  : Picture based subtitle format used on BDs/HD-DVDs
Duration                       : 1 h 36 min
Bit rate                       : 57.8 kb/s
Count of elements              : 2738
Stream size                    : 39.8 MiB (5%)
Title                          : GOPI SAHI
Language                       : English
Default                        : Yes
Forced                         : No




 

Post a Comment

0 Comments