Looper 2012 x264 720p Esub BluRay Dual Audio English Hindi THE GOPI SAHI

 

Looper (2012)

 
 
In 2074, when the mob wants to get rid of someone, the target is sent into the past, where a hired gun awaits - someone like Joe - who one day learns the mob wants to 'close the loop' by sending back Joe's future self for assassination.
EN

Director:

Rian Johnson

Writer:

Rian Johnson
 
7.4/10

539,237

 

Directed byRian Johnson
Produced by
Written byRian Johnson
Starring
Music byNathan Johnson
CinematographySteve Yedlin
Edited byBob Ducsay
Production
company
Distributed byTriStar Pictures[1]
Release date
  • September 6, 2012 (TIFF)
  • September 28, 2012 (United States)
Running time
118 minutes[2]
CountryUnited States[1]
LanguageEnglish
Budget$30 million[3]
Box office$176.5 million[3]



 Looper 2012 x264 720p Esub BluRay Dual Audio English Hindi THE GOPI SAHI

Format                         : Matroska
Format version                 : Version 4
File size                      : 1.07 GiB
Duration                       : 1 h 58 min
Overall bit rate               : 1 293 kb/s
Movie name                     : Looper 2012 GOPI SAHI
Encoded date                   : UTC 2021-04-25 15:43:24

Video
ID                             : 1
Format                         : AVC
Format/Info                    : Advanced Video Codec
Format profile                 : [email protected]
Format settings                : CABAC / 5 Ref Frames
Format settings, CABAC         : Yes
Format settings, Reference fra : 5 frames
Codec ID                       : V_MPEG4/ISO/AVC
Duration                       : 1 h 58 min
Bit rate                       : 899 kb/s
Width                          : 1 280 pixels
Height                         : 544 pixels
Display aspect ratio           : 2.35:1
Frame rate mode                : Constant
Frame rate                     : 23.976 (24000/1001) FPS
Color space                    : YUV
Chroma subsampling             : 4:2:0
Bit depth                      : 8 bits
Scan type                      : Progressive
Bits/(Pixel*Frame)             : 0.054
Stream size                    : 764 MiB (70%)
Title                          : GOPI SAHI
Writing library                : x264 core 157 r2935 545de2f

Audio #1
ID                             : 2
Format                         : AAC LC
Format/Info                    : Advanced Audio Codec Low Complexity
Codec ID                       : A_AAC-2
Duration                       : 1 h 58 min
Bit rate                       : 192 kb/s
Channel(s)                     : 6 channels
Channel layout                 : C L R Ls Rs LFE
Sampling rate                  : 48.0 kHz
Frame rate                     : 46.875 FPS (1024 SPF)
Compression mode               : Lossy
Delay relative to video        : -13 ms
Stream size                    : 164 MiB (15%)
Title                          : GOPI SAHI
Language                       : Hindi
Default                        : Yes
Forced                         : No

Audio #2
ID                             : 3
Format                         : AAC LC
Format/Info                    : Advanced Audio Codec Low Complexity
Codec ID                       : A_AAC-2
Duration                       : 1 h 58 min
Bit rate                       : 192 kb/s
Channel(s)                     : 6 channels
Channel layout                 : C L R Ls Rs LFE
Sampling rate                  : 48.0 kHz
Frame rate                     : 46.875 FPS (1024 SPF)
Compression mode               : Lossy
Delay relative to video        : -21 ms
Stream size                    : 164 MiB (15%)
Title                          : GOPI SAHI
Language                       : English
Default                        : No
Forced                         : No

Text
ID                             : 4
Format                         : PGS
Muxing mode                    : zlib
Codec ID                       : S_HDMV/PGS
Codec ID/Info                  : Picture based subtitle format used on BDs/HD-DVDs
Duration                       : 1 h 53 min
Bit rate                       : 18.3 kb/s
Count of elements              : 2408
Stream size                    : 14.8 MiB (1%)
Title                          : GOPI SAHI
Language                       : English
Default                        : No
Forced                         : No

Menu
00:00:00.000                   : :Chapter 1
00:07:27.739                   : :Chapter 2
00:13:32.020                   : :Chapter 3
00:21:22.490                   : :Chapter 4
00:26:48.190                   : :Chapter 5
00:31:51.410                   : :Chapter 6
00:41:28.403                   : :Chapter 7
00:49:33.429                   : :Chapter 8
00:54:10.414                   : :Chapter 9
01:00:35.173                   : :Chapter 10
01:08:09.919                   : :Chapter 11
01:15:23.352                   : :Chapter 12
01:23:57.741                   : :Chapter 13
01:34:26.077                   : :Chapter 14
01:41:04.433                   : :Chapter 15
01:46:29.383                   : :Chapter 16



 

MAGNET

TORRENT

TORRENT 2 ZIP FILE

GDRIVE FILE COPY

DWONLOAD AUTO START IN 20 SEC ZIP FILE

DOWNLOAD AND ONLINE DUBOX LINK = PASSWORD = 12h6

MULTIUP

MIRRORACE

MEDIAFIRE

ONLINE 720P

 

Post a Comment

0 Comments