Mechanic - Resurrection 2016 x264 720p Esub BluRay Dual Audio English Hindi THE GOPI SAHI

Mechanic: Resurrection (2016)

 
 
Bishop's most formidable foe kidnaps the love of his life in order to make him complete three impossible assassinations and make them look like accidents.
EN

Director:

Dennis Gansel

Writers:

Lewis John Carlino (based upon the characters created by), Philip Shelby (story by) | 2 more credits »
 
5.7/10
77,841
Directed byDennis Gansel
Produced by
  • John Thompson
  • Robert Earl
  • David Winkler
  • William Chartoff
Screenplay by
Story by
  • Brian Pittman
  • Philip Shelby
Based onCharacters
by Lewis John Carlino
Richard Wenk
Starring
Music byMark Isham
CinematographyDaniel Gottschalk
Edited by
  • Michael Duthie
  • Todd E. Miller
  • Ueli Christen
Production
companies
Distributed bySummit Premiere (United States; through Lionsgate[1])
Metropolitan Filmexport (France)[1]
Release date
Running time
98 minutes[1]
Countries
  • United States
  • France
LanguageEnglish
Budget$40 million[2]
Box office$125.7 million[1]

 

 


 Mechanic - Resurrection 2016 x264 720p Esub BluRay Dual Audio English Hindi THE GOPI SAHI

Format                         : Matroska
Format version                 : Version 4
File size                      : 912 MiB
Duration                       : 1 h 38 min
Overall bit rate               : 1 292 kb/s
Movie name                     : Mechanic - Resurrection 2016 GOPISAHI
Encoded date                   : UTC 2019-08-11 03:21:57

Video
ID                             : 1
Format                         : AVC
Format/Info                    : Advanced Video Codec
Format profile                 : [email protected]
Format settings                : CABAC / 12 Ref Frames
Format settings, CABAC         : Yes
Format settings, Reference fra : 12 frames
Codec ID                       : V_MPEG4/ISO/AVC
Duration                       : 1 h 38 min
Bit rate                       : 899 kb/s
Width                          : 1 280 pixels
Height                         : 534 pixels
Display aspect ratio           : 2.40:1
Frame rate mode                : Constant
Frame rate                     : 23.976 (24000/1001) FPS
Color space                    : YUV
Chroma subsampling             : 4:2:0
Bit depth                      : 8 bits
Scan type                      : Progressive
Bits/(Pixel*Frame)             : 0.055
Stream size                    : 634 MiB (70%)
Title                          : GOPISAHI
Writing library                : x264 core 157 r2935 545de2f

Audio #1
ID                             : 2
Format                         : AAC LC
Format/Info                    : Advanced Audio Codec Low Complexity
Codec ID                       : A_AAC-2
Duration                       : 1 h 38 min
Bit rate                       : 192 kb/s
Channel(s)                     : 6 channels
Channel layout                 : C L R Ls Rs LFE
Sampling rate                  : 48.0 kHz
Frame rate                     : 46.875 FPS (1024 SPF)
Compression mode               : Lossy
Delay relative to video        : 7 ms
Stream size                    : 136 MiB (15%)
Title                          : GOPISAHI
Language                       : Hindi
Default                        : Yes
Forced                         : No

Audio #2
ID                             : 3
Format                         : AAC LC
Format/Info                    : Advanced Audio Codec Low Complexity
Codec ID                       : A_AAC-2
Duration                       : 1 h 38 min
Bit rate                       : 192 kb/s
Channel(s)                     : 6 channels
Channel layout                 : C L R Ls Rs LFE
Sampling rate                  : 48.0 kHz
Frame rate                     : 46.875 FPS (1024 SPF)
Compression mode               : Lossy
Delay relative to video        : -1 ms
Stream size                    : 136 MiB (15%)
Title                          : GOPISAHI
Language                       : English
Default                        : No
Forced                         : No

Text
ID                             : 4
Format                         : PGS
Muxing mode                    : zlib
Codec ID                       : S_HDMV/PGS
Codec ID/Info                  : Picture based subtitle format used on BDs/HD-DVDs
Duration                       : 1 h 30 min
Bit rate                       : 11.5 kb/s
Count of elements              : 1260
Stream size                    : 7.46 MiB (1%)
Title                          : GOPISAHI
Language                       : English
Default                        : Yes
Forced                         : No

Menu
00:00:00.000                   : en:Chapter 01
00:06:34.936                   : en:Chapter 02
00:11:51.335                   : en:Chapter 03
00:18:31.276                   : en:Chapter 04
00:26:04.896                   : en:Chapter 05
00:31:57.540                   : en:Chapter 06
00:38:31.267                   : en:Chapter 07
00:43:35.696                   : en:Chapter 08
00:49:23.210                   : en:Chapter 09
00:54:20.382                   : en:Chapter 10
01:00:09.856                   : en:Chapter 11
01:05:50.446                   : en:Chapter 12
01:10:25.429                   : en:Chapter 13
01:14:52.362                   : en:Chapter 14
01:21:04.860                   : en:Chapter 15
01:31:38.784                   : en:Chapter 16





Post a comment

0 Comments