Midsommar 2019 DIRECTORS CUT x264 720p Esub BluRay Dual Audio English Hindi THE GOPI SAHI

Midsommar (2019)

 

A couple travels to Scandinavia to visit a rural hometown's fabled Swedish mid-summer festival. What begins as an idyllic retreat quickly devolves into an increasingly violent and bizarre competition at the hands of a pagan cult.
EN

Director:

Ari Aster

Writer:

Ari Aster
 
7.1/10

211,667

 

Directed byAri Aster
Produced by
Written byAri Aster
Starring
Music byBobby Krlic
CinematographyPawel Pogorzelski
Edited byLucian Johnston
Production
companies
Distributed by
Release date
  • July 3, 2019 (United States)
  • July 10, 2019 (Sweden)
Running time
148 minutes (theatrical version)
171 minutes (extended cut)[1]
Countries
  • United States
  • Sweden
LanguageEnglish
Budget$9 million[2]
Box office$48 million[2]

 


Midsommar 2019 DIRECTORS CUT x264 720p Esub BluRay Dual Audio English Hindi THE GOPI SAHI


Format                         : Matroska
Format version                 : Version 4
File size                      : 1.30 GiB
Duration                       : 2 h 50 min
Overall bit rate               : 1 094 kb/s
Movie name                     : Midsommar 2019 DIRECTORS CUT GOPI SAHI
Encoded date                   : UTC 2021-04-14 01:38:51

Video
ID                             : 1
Format                         : AVC
Format/Info                    : Advanced Video Codec
Format profile                 : [email protected]
Format settings                : CABAC / 5 Ref Frames
Format settings, CABAC         : Yes
Format settings, Reference fra : 5 frames
Codec ID                       : V_MPEG4/ISO/AVC
Duration                       : 2 h 50 min
Bit rate                       : 899 kb/s
Width                          : 1 280 pixels
Height                         : 640 pixels
Display aspect ratio           : 2.000
Frame rate mode                : Constant
Frame rate                     : 23.976 (24000/1001) FPS
Color space                    : YUV
Chroma subsampling             : 4:2:0
Bit depth                      : 8 bits
Scan type                      : Progressive
Bits/(Pixel*Frame)             : 0.046
Stream size                    : 1.07 GiB (82%)
Title                          : GOPI SAHI
Writing library                : x264 core 157 r2935 545de2f

Audio #1
ID                             : 2
Format                         : AAC LC
Format/Info                    : Advanced Audio Codec Low Complexity
Codec ID                       : A_AAC-2
Duration                       : 2 h 50 min
Bit rate                       : 96.0 kb/s
Channel(s)                     : 2 channels
Channel layout                 : L R
Sampling rate                  : 48.0 kHz
Frame rate                     : 46.875 FPS (1024 SPF)
Compression mode               : Lossy
Delay relative to video        : -21 ms
Stream size                    : 117 MiB (9%)
Title                          : GOPI SAHI
Language                       : Hindi
Default                        : Yes
Forced                         : No

Audio #2
ID                             : 3
Format                         : AAC LC
Format/Info                    : Advanced Audio Codec Low Complexity
Codec ID                       : A_AAC-2
Duration                       : 2 h 50 min
Bit rate                       : 96.0 kb/s
Channel(s)                     : 2 channels
Channel layout                 : L R
Sampling rate                  : 48.0 kHz
Frame rate                     : 46.875 FPS (1024 SPF)
Compression mode               : Lossy
Delay relative to video        : -21 ms
Stream size                    : 117 MiB (9%)
Title                          : GOPI SAHI
Language                       : English
Default                        : No
Forced                         : No

Text
ID                             : 4
Format                         : UTF-8
Codec ID                       : S_TEXT/UTF8
Codec ID/Info                  : UTF-8 Plain Text
Duration                       : 2 h 34 min
Bit rate                       : 41 b/s
Count of elements              : 1432
Stream size                    : 46.6 KiB (0%)
Title                          : GOPI SAHI
Language                       : English
Default                        : Yes
Forced                         : No

Menu
00:00:00.000                   : :Chapter 1
00:08:50.697                   : :Chapter 2
00:19:38.094                   : :Chapter 3
00:32:17.978                   : :Chapter 4
00:41:50.258                   : :Chapter 5
00:52:45.245                   : :Chapter 6
00:58:11.238                   : :Chapter 7
01:05:14.494                   : :Chapter 8
01:21:08.447                   : :Chapter 9
01:44:24.300                   : :Chapter 10
01:52:03.467                   : :Chapter 11
02:00:47.699                   : :Chapter 12
02:12:00.746                   : :Chapter 13
02:20:20.370                   : :Chapter 14
02:25:01.568                   : :Chapter 15
02:36:59.911                   : :Chapter 16



 

MAGNET

TORRENT

TORRENT 2 ZIP FILE


GDRIVE FILE COPY

DWONLOAD AUTO START IN 20 SEC ZIP FILE

DOWNLOAD AND ONLINE DUBOX LINK = PASSWORD = ps2a

MULTIUP


MEDIAFIRE

ONLINE 720P

 

Post a Comment

0 Comments