Mr And Mrs Smith 2005 Directors Cut x264 720p BluRay Dual Audio English Hindi THE GOPI SAHI

Mr. & Mrs. Smith (2005)

 
 
A bored married couple is surprised to learn that they are both assassins hired by competing agencies to kill each other.
EN
6.5/10
455,320
Directed byDoug Liman
Produced by
Written bySimon Kinberg
Starring
Music byJohn Powell
CinematographyBojan Bazelli
Edited byMichael Tronick
Production
companies
Distributed by20th Century Fox
Release date
  • June 7, 2005 (Westwood)
  • June 10, 2005 (United States)
Running time
120 minutes
CountryUnited States
LanguageEnglish
Budget$110 million[1]
Box office$487.3 million[1]

 

 

 


Mr And Mrs Smith 2005 Directors Cut x264 720p  BluRay Dual Audio English Hindi THE GOPI SAHI


Format                         : Matroska
Format version                 : Version 4
File size                      : 983 MiB
Duration                       : 2 h 5 min
Overall bit rate               : 1 095 kb/s
Movie name                     : Mr And Mrs Smith 2005 Directors Cut GOPI SAHI
Encoded date                   : UTC 2020-11-30 11:57:59

Video
ID                             : 1
Format                         : AVC
Format/Info                    : Advanced Video Codec
Format profile                 : [email protected]
Format settings                : CABAC / 5 Ref Frames
Format settings, CABAC         : Yes
Format settings, Reference fra : 5 frames
Codec ID                       : V_MPEG4/ISO/AVC
Duration                       : 2 h 5 min
Bit rate                       : 899 kb/s
Width                          : 1 280 pixels
Height                         : 546 pixels
Display aspect ratio           : 2.35:1
Frame rate mode                : Constant
Frame rate                     : 23.976 (24000/1001) FPS
Color space                    : YUV
Chroma subsampling             : 4:2:0
Bit depth                      : 8 bits
Scan type                      : Progressive
Bits/(Pixel*Frame)             : 0.054
Stream size                    : 807 MiB (82%)
Title                          : GOPI SAHI
Writing library                : x264 core 157 r2935 545de2f

Audio #1
ID                             : 2
Format                         : AAC LC
Format/Info                    : Advanced Audio Codec Low Complexity
Codec ID                       : A_AAC-2
Duration                       : 2 h 5 min
Bit rate                       : 96.0 kb/s
Channel(s)                     : 2 channels
Channel layout                 : L R
Sampling rate                  : 48.0 kHz
Frame rate                     : 46.875 FPS (1024 SPF)
Compression mode               : Lossy
Delay relative to video        : -26 ms
Stream size                    : 86.7 MiB (9%)
Title                          : GOPI SAHI
Language                       : Hindi
Default                        : Yes
Forced                         : No

Audio #2
ID                             : 3
Format                         : AAC LC
Format/Info                    : Advanced Audio Codec Low Complexity
Codec ID                       : A_AAC-2
Duration                       : 2 h 5 min
Bit rate                       : 96.0 kb/s
Channel(s)                     : 2 channels
Channel layout                 : L R
Sampling rate                  : 48.0 kHz
Frame rate                     : 46.875 FPS (1024 SPF)
Compression mode               : Lossy
Delay relative to video        : -26 ms
Stream size                    : 86.6 MiB (9%)
Title                          : GOPI SAHI
Language                       : English
Default                        : No
Forced                         : No

Menu
00:00:00.005                   : :Main Titles
00:10:07.946                   : :Bogota
00:19:43.187                   : :Does It Dance?
00:28:37.387                   : :Beginner's Luck
00:39:39.674                   : :Fiv or Six Years Later...
00:50:11.138                   : :Peas, and Not Much More
01:01:19.639                   : :Secrets
01:12:23.553                   : :Playing Picture Perfect
01:23:01.064                   : :Tank
01:34:05.270                   : :Lexington Avenue
01:45:33.666                   : :Dinner at Seven
01:56:58.058                   : :Seperates, But Equals




MAGNET

TORRENT

TORRENT 2 ZIP FILE

GDRIVE FILE COPY

DWONLOAD AUTO START IN 20 SEC ZIP FILE


DOWNLOAD AND ONLINE DUBOX LINK = PASSWORD = eh92

MULTIUP

MIRRORACE


MEDIAFIRE

ONLINE 720P

 


Post a Comment

0 Comments