Mumbai Saga 2021 x264 720p WebHD Esub Hindi THE GOPI SAHI

 

Mumbai Saga (2021)

 
 
The plot of the movie is set in the era of the 80s and 90s which were marked as a transformed period of Mumbai.

Director:

Sanjay Gupta

Writers:

Robin Bhatt (screenplay), Sanjay Gupta (screenplay) | 2 more credits »
 
5.5/10

5,248

 

Directed bySanjay Gupta
Produced byBhushan Kumar
Krishan Kumar
Anuradha Gupta
Sangeeta Ahir
Written byDialogues:
Sanjay Gupta
Vaibhav Vishal
Screenplay byRobin Bhatt
Sanjay Gupta[1]
Starring
Music byScore:
Amar Mohile
Songs:
Yo Yo Honey Singh
Payal Dev
Tanishk Bagchi
CinematographyShikhar Bhatnagar[1]
Edited byBunty Negi[1]
Production
companies
T-Series
White Feather Films
Distributed byAA Films[1]
Release date
  • 19 March 2021[2]
Running time
128 minutes
CountryIndia
LanguageHindi
Budget₹50 crore[3]
Box officeest. ₹22.29 crore[4]

 
Mumbai Saga 2021 x264 720p WebHD Esub Hindi THE GOPI SAHI

Format                         : Matroska
Format version                 : Version 4
File size                      : 895 MiB
Duration                       : 2 h 5 min
Overall bit rate               : 996 kb/s
Movie name                     : Mumbai Saga 2021 GOPI SAHI
Encoded date                   : UTC 2021-04-27 06:40:31

Video
ID                             : 1
Format                         : AVC
Format/Info                    : Advanced Video Codec
Format profile                 : [email protected]
Format settings                : CABAC / 5 Ref Frames
Format settings, CABAC         : Yes
Format settings, Reference fra : 5 frames
Codec ID                       : V_MPEG4/ISO/AVC
Duration                       : 2 h 5 min
Bit rate                       : 899 kb/s
Width                          : 1 268 pixels
Height                         : 528 pixels
Display aspect ratio           : 2.40:1
Frame rate mode                : Constant
Frame rate                     : 24.000 FPS
Color space                    : YUV
Chroma subsampling             : 4:2:0
Bit depth                      : 8 bits
Scan type                      : Progressive
Bits/(Pixel*Frame)             : 0.056
Stream size                    : 807 MiB (90%)
Title                          : GOPI SAHI
Writing library                : x264 core 157 r2935 545de2f

Audio
ID                             : 2
Format                         : AAC LC
Format/Info                    : Advanced Audio Codec Low Complexity
Codec ID                       : A_AAC-2
Duration                       : 2 h 5 min
Bit rate                       : 96.0 kb/s
Channel(s)                     : 2 channels
Channel layout                 : L R
Sampling rate                  : 48.0 kHz
Frame rate                     : 46.875 FPS (1024 SPF)
Compression mode               : Lossy
Delay relative to video        : -21 ms
Stream size                    : 86.3 MiB (10%)
Title                          : GOPI SAHI
Language                       : Hindi
Default                        : Yes
Forced                         : No

Text
Language                       : English



 

MAGNET

TORRENT

TORRENT 2 ZIP FILE

GDRIVE FILE COPY

DWONLOAD AUTO START IN 20 SEC ZIP FILE

DOWNLOAD AND ONLINE DUBOX LINK = PASSWORD = uyfg

MULTIUP

MIRRORACE

MEDIAFIRE

ONLINE 720P


Post a Comment

0 Comments