Old Boy 2003 720p Esub BluRay Dual Audio Hindi Korean GOPISAHI

 

Oldboy (2003)

Oldeuboi (original title)
 
 
After being kidnapped and imprisoned for fifteen years, Oh Dae-Su is released, only to find that he must find his captor in five days.
EN

Director:

Chan-wook Park

Writers:

Garon Tsuchiya (story), Nobuaki Minegishi (comic) | 4 more credits »
 
8.4/10
523,774
Hangul
Revised RomanizationOldeuboi
McCune–ReischauerOldŭboi
Directed byPark Chan-wook
Produced byLim Seung-yong
Screenplay by
  • Hwang Jo-yun
  • Lim Jun-hyung
  • Park Chan-wook
Based on
Starring
Music byCho Young-wuk
CinematographyChung Chung-hoon
Edited byKim Sang-bum
Production
company
Show East
Distributed byShow East
Release date
  • 21 November 2003
Running time
120 minutes[1]
CountrySouth Korea
LanguageKorean
Budget$3 million[2]
Box office$15 million[3]

 

 


Old Boy 2003 720p Esub BluRay Dual Audio Hindi Korean GOPISAHI


Format                         : Matroska
Format version                 : Version 4
File size                      : 933 MiB
Duration                       : 1 h 59 min
Overall bit rate               : 1 088 kb/s
Movie name                     : Old Boy 2003 GOPISAHI
Encoded date                   : UTC 2017-08-18 02:33:21

Video
ID                             : 1
Format                         : AVC
Format/Info                    : Advanced Video Codec
Format profile                 : [email protected]
Format settings                : CABAC / 4 Ref Frames
Format settings, CABAC         : Yes
Format settings, Reference fra : 4 frames
Codec ID                       : V_MPEG4/ISO/AVC
Duration                       : 1 h 59 min
Bit rate                       : 925 kb/s
Width                          : 1 280 pixels
Height                         : 552 pixels
Display aspect ratio           : 2.35:1
Frame rate mode                : Constant
Frame rate                     : 23.976 (24000/1001) FPS
Color space                    : YUV
Chroma subsampling             : 4:2:0
Bit depth                      : 8 bits
Scan type                      : Progressive
Bits/(Pixel*Frame)             : 0.055
Stream size                    : 794 MiB (85%)
Title                          : GOPISAHI
Writing library                : x264 core 138 r2358 9e941d1


Audio #1
ID                             : 2
Format                         : AAC LC
Format/Info                    : Advanced Audio Codec Low Complexity
Codec ID                       : A_AAC-2
Duration                       : 1 h 57 min
Bit rate                       : 78.9 kb/s
Channel(s)                     : 6 channels
Channel layout                 : C L R Ls Rs LFE
Sampling rate                  : 44.1 kHz
Frame rate                     : 43.066 FPS (1024 SPF)
Compression mode               : Lossy
Stream size                    : 66.4 MiB (7%)
Title                          : GOPISAHI
Language                       : Hindi
Default                        : No
Forced                         : No

Audio #2
ID                             : 4
Format                         : AAC LC
Format/Info                    : Advanced Audio Codec Low Complexity
Codec ID                       : A_AAC-2
Duration                       : 1 h 59 min
Bit rate                       : 83.0 kb/s
Channel(s)                     : 6 channels
Channel layout                 : C L R Ls Rs LFE
Sampling rate                  : 44.1 kHz
Frame rate                     : 43.066 FPS (1024 SPF)
Compression mode               : Lossy
Stream size                    : 71.2 MiB (8%)
Title                          : GOPISAHI
Language                       : Korean
Default                        : No
Forced                         : No

Text
ID                             : 3
Format                         : UTF-8
Codec ID                       : S_TEXT/UTF8
Codec ID/Info                  : UTF-8 Plain Text
Duration                       : 1 h 56 min
Bit rate                       : 32 b/s
Count of elements              : 1045
Stream size                    : 27.4 KiB (0%)
Title                          : GOPISAHI
Language                       : English
Default                        : Yes
Forced                         : No

 

 




MAGNET

TORRENT 2 ZIP FILE


GDRIVE FILE COPY

DWONLOAD AUTO START IN 20 SEC ZIP FILE


DOWNLOAD AND ONLINE DUBOX LINK = PASSWORD = 9t1h

MULTIUP

MEDIAFIRE

ONLINE 720P

Post a Comment

0 Comments