Penguins of Madagascar 2014 x264 720p Esub BluRay Dual Audio English Hindi THE GOPI SAHI

 

Penguins of Madagascar (2014)

 
 
Skipper, Kowalski, Rico and Private join forces with undercover organization The North Wind to stop the villainous Dr. Octavius Brine from destroying the world as we know it.
EN

Writers:

Michael Colton (screenplay by), John Aboud (screenplay by) | 5 more credits »
 
6.7/10

80,293

 

Directed by
Produced by
Screenplay by
Story by
  • Alan J. Schoolcraft
  • Brent Simons
  • Michael Colton
  • John Aboud
Based on
Characters created
by
  • Tom McGrath
  • Eric Darnell
Starring
Music byLorne Balfe[4][5]
Edited byNick Kenway
Production
companies
Distributed by20th Century Fox
Release date
  • November 14, 2014 (China)
  • November 26, 2014 (United States)
Running time
91 minutes[7]
CountryUnited States
LanguageEnglish
Budget$132 million[8]
Box office$373 million[9]

 


Penguins of Madagascar 2014 x264 720p Esub BluRay Dual Audio English Hindi THE GOPI SAHI


Format                         : Matroska
Format version                 : Version 4
File size                      : 719 MiB
Duration                       : 1 h 32 min
Overall bit rate               : 1 091 kb/s
Movie name                     : Penguins of Madagascar 2014 GOPI SAHI
Encoded date                   : UTC 2021-04-04 03:23:02

Video
ID                             : 1
Format                         : AVC
Format/Info                    : Advanced Video Codec
Format profile                 : [email protected]
Format settings                : CABAC / 5 Ref Frames
Format settings, CABAC         : Yes
Format settings, Reference fra : 5 frames
Codec ID                       : V_MPEG4/ISO/AVC
Duration                       : 1 h 31 min
Bit rate                       : 899 kb/s
Width                          : 1 280 pixels
Height                         : 694 pixels
Display aspect ratio           : 1.85:1
Frame rate mode                : Constant
Frame rate                     : 23.976 (24000/1001) FPS
Color space                    : YUV
Chroma subsampling             : 4:2:0
Bit depth                      : 8 bits
Scan type                      : Progressive
Bits/(Pixel*Frame)             : 0.042
Stream size                    : 590 MiB (82%)
Title                          : GOPI SAHI
Writing library                : x264 core 157 r2935 545de2f

Audio #1
ID                             : 2
Format                         : AAC LC
Format/Info                    : Advanced Audio Codec Low Complexity
Codec ID                       : A_AAC-2
Duration                       : 1 h 32 min
Bit rate                       : 96.0 kb/s
Channel(s)                     : 2 channels
Channel layout                 : L R
Sampling rate                  : 48.0 kHz
Frame rate                     : 46.875 FPS (1024 SPF)
Compression mode               : Lossy
Delay relative to video        : -5 ms
Stream size                    : 63.2 MiB (9%)
Title                          : GOPI SAHI
Language                       : Hindi
Default                        : Yes
Forced                         : No

Audio #2
ID                             : 3
Format                         : AAC LC
Format/Info                    : Advanced Audio Codec Low Complexity
Codec ID                       : A_AAC-2
Duration                       : 1 h 31 min
Bit rate                       : 96.0 kb/s
Channel(s)                     : 2 channels
Channel layout                 : L R
Sampling rate                  : 48.0 kHz
Frame rate                     : 46.875 FPS (1024 SPF)
Compression mode               : Lossy
Delay relative to video        : -21 ms
Stream size                    : 63.2 MiB (9%)
Title                          : GOPI SAHI
Language                       : English
Default                        : No
Forced                         : No

Text #1
Language                       : English

Text #2
Language                       : Hindi




MAGNET

TORRENT

TORRENT 2 ZIP FILE

GDRIVE FILE COPY

DWONLOAD AUTO START IN 20 SEC ZIP FILE

DOWNLOAD AND ONLINE DUBOX LINK = PASSWORD = q1rw

MULTIUP

MEDIAFIRE

ONLINE 720P

 

Post a Comment

0 Comments