RockNRolla 2008 x264 720p Esub BluRay Dual Audio English Hindi THE GOPI SAHI

RocknRolla (2008)

 
 
When a Russian mobster orchestrates a crooked land deal, millions of dollars are up for grabs, drawing in the entire London underworld into a feeding frenzy at a time when the old criminal regime is losing turf to a wealthy foreign mob.
EN

Director:

Guy Ritchie

Writer:

Guy Ritchie

 

7.3/10
238,383
Directed byGuy Ritchie
Produced by
Written byGuy Ritchie
Starring
Music bySteve Isles
CinematographyDavid Higgs
Edited byJames Herbert
Production
company
Distributed byWarner Bros. Pictures (International)
StudioCanal (France)[1]
Release date
  • 4 September 2008 (TIFF)
  • 5 September 2008 (United Kingdom)
  • 31 October 2008 (United States)
  • 19 November 2008 (France)
Running time
114 minutes
Countries
  • United Kingdom
  • United States
  • France
Languages
  • English
  • French
  • Russian
Budget$18 million[2]
Box office$25 million[1]

 


 

RockNRolla 2008 x264 720p Esub BluRay Dual Audio English Hindi THE GOPI SAHI

Format                         : Matroska
Format version                 : Version 4
File size                      : 948 MiB
Duration                       : 1 h 54 min
Overall bit rate               : 1 160 kb/s
Movie name                     : RockNRolla 2008 GOPI SAHI
Encoded date                   : UTC 2021-04-29 06:48:17

Video
ID                             : 1
Format                         : AVC
Format/Info                    : Advanced Video Codec
Format profile                 : [email protected]
Format settings                : CABAC / 5 Ref Frames
Format settings, CABAC         : Yes
Format settings, Reference fra : 5 frames
Codec ID                       : V_MPEG4/ISO/AVC
Duration                       : 1 h 54 min
Bit rate                       : 899 kb/s
Width                          : 1 280 pixels
Height                         : 534 pixels
Display aspect ratio           : 2.40:1
Frame rate mode                : Constant
Frame rate                     : 23.976 (24000/1001) FPS
Color space                    : YUV
Chroma subsampling             : 4:2:0
Bit depth                      : 8 bits
Scan type                      : Progressive
Bits/(Pixel*Frame)             : 0.055
Stream size                    : 735 MiB (78%)
Writing library                : x264 core 157 r2935 545de2f

Audio #1
ID                             : 2
Format                         : AAC LC
Format/Info                    : Advanced Audio Codec Low Complexity
Codec ID                       : A_AAC-2
Duration                       : 1 h 54 min
Bit rate                       : 129 kb/s
Channel(s)                     : 2 channels
Channel layout                 : L R
Sampling rate                  : 44.1 kHz
Frame rate                     : 43.066 FPS (1024 SPF)
Compression mode               : Lossy
Stream size                    : 106 MiB (11%)
Title                          : GOPI SAHI
Language                       : Hindi
Default                        : Yes
Forced                         : No

Audio #2
ID                             : 3
Format                         : AAC LC
Format/Info                    : Advanced Audio Codec Low Complexity
Codec ID                       : A_AAC-2
Duration                       : 1 h 54 min
Bit rate                       : 128 kb/s
Channel(s)                     : 2 channels
Channel layout                 : L R
Sampling rate                  : 44.1 kHz
Frame rate                     : 43.066 FPS (1024 SPF)
Compression mode               : Lossy
Stream size                    : 105 MiB (11%)
Title                          : GOPI SAHI
Language                       : English
Default                        : No
Forced                         : No

Text
ID                             : 4
Format                         : UTF-8
Codec ID                       : S_TEXT/UTF8
Codec ID/Info                  : UTF-8 Plain Text
Duration                       : 1 h 47 min
Bit rate                       : 73 b/s
Count of elements              : 1586
Stream size                    : 57.9 KiB (0%)
Title                          : GOPI SAHI
Language                       : English
Default                        : Yes
Forced                         : No

 




MAGNET

TORRENT

TORRENT 2 ZIP FILE


GDRIVE FILE COPY

DWONLOAD AUTO START IN 20 SEC ZIP FILE

DOWNLOAD AND ONLINE DUBOX LINK = PASSWORD = sc9j

MULTIUP

MIRRORACE

MEDIAFIRE

ONLINE 720P

 

Post a comment

0 Comments