Roohi 2021 x264 720p WebHD Esub Hindi THE GOPI SAHI

 

Roohi (2021)

 
 anhvi Kapoor has begun shooting for the horror-comedy Roohi Afza, in which she stars alongside Rajkummar Rao and Varun Sharma.
EN

Director:

Hardik Mehta
 
4.5/10
3,430
Directed byHardik Mehta
Produced byDinesh Vijan
Mrighdeep Singh Lamba
Written byMrighdeep Singh Lamba
Gautam Mehra
StarringRajkummar Rao
Varun Sharma
Janhvi Kapoor
Music byScore:
Ketan Sodha
Songs:
Sachin–Jigar
CinematographyAmalendu Chaudhary
Edited byHuzefa Lokhandwala
Production
companies
Maddock Films
Jio Studios
Distributed byJio Studios
Release date
  • 11 March 2021[1]
Running time
134 minutes
CountryIndia
Box officeest. ₹30.33 crore[2]

 


 

Roohi 2021 x264 720p WebHD Esub Hindi THE GOPI SAHI


Format                         : Matroska
Format version                 : Version 4
File size                      : 952 MiB
Duration                       : 2 h 13 min
Overall bit rate               : 998 kb/s
Movie name                     : Roohi 2021 GOPI SAHI
Encoded date                   : UTC 2021-04-09 11:42:42

Video
ID                             : 1
Format                         : AVC
Format/Info                    : Advanced Video Codec
Format profile                 : [email protected]
Format settings                : CABAC / 5 Ref Frames
Format settings, CABAC         : Yes
Format settings, Reference fra : 5 frames
Codec ID                       : V_MPEG4/ISO/AVC
Duration                       : 2 h 13 min
Bit rate                       : 899 kb/s
Width                          : 1 280 pixels
Height                         : 536 pixels
Display aspect ratio           : 2.40:1
Frame rate mode                : Constant
Frame rate                     : 24.000 FPS
Color space                    : YUV
Chroma subsampling             : 4:2:0
Bit depth                      : 8 bits
Scan type                      : Progressive
Bits/(Pixel*Frame)             : 0.055
Stream size                    : 858 MiB (90%)
Title                          : GOPI SAHI
Writing library                : x264 core 157 r2935 545de2f

Audio
ID                             : 2
Format                         : AAC LC
Format/Info                    : Advanced Audio Codec Low Complexity
Codec ID                       : A_AAC-2
Duration                       : 2 h 13 min
Bit rate                       : 96.0 kb/s
Channel(s)                     : 2 channels
Channel layout                 : L R
Sampling rate                  : 48.0 kHz
Frame rate                     : 46.875 FPS (1024 SPF)
Compression mode               : Lossy
Delay relative to video        : -21 ms
Stream size                    : 92.1 MiB (10%)
Title                          : GOPI SAHI
Language                       : Hindi
Default                        : Yes
Forced                         : No

Text
ID                             : 3
Language                       : English
 




MAGNET

TORRENT

TORRENT 2 ZIP FILE

GDRIVE FILE COPY

DWONLOAD AUTO START IN 20 SEC ZIP FILE

DOWNLOAD AND ONLINE DUBOX LINK = PASSWORD = 7qwg

MULTIUP

MEDIAFIRE

ONLINE 720P

 

Post a Comment

0 Comments