Shanghai Knights 2003 x264 720p Esub BluRay Dual Audio English Hindi THE GOPI SAHI

 

Shanghai Knights (2003)

 
 
When a Chinese rebel murders Chon's estranged father and escapes to England, Chon and Roy make their way to London with revenge on their minds.
EN

Director:

David Dobkin

Writers:

Alfred Gough (characters), Miles Millar (characters) | 2 more credits »
 
6.2/10
100,954
Directed byDavid Dobkin
Produced by
Screenplay by
Based onCharacters
by Alfred Gough
Miles Millar
Starring
Music byRandy Edelman
CinematographyAdrian Biddle
Edited byMalcolm Campbell
Production
companies
Distributed byBuena Vista Pictures
Release date
  • February 7, 2003
Running time
114 minutes[1]
CountryUnited States
LanguageEnglish
Budget$50 million[2]
Box office$88.3 million[2]

 


 Shanghai Knights 2003 x264 720p Esub BluRay Dual Audio English Hindi THE GOPI SAHI

Format                         : Matroska
Format version                 : Version 4
File size                      : 944 MiB
Duration                       : 1 h 54 min
Overall bit rate               : 1 154 kb/s
Movie name                     : Shanghai Knights 2003 GOPI SAHI
Encoded date                   : UTC 2020-08-10 05:01:28

Video
ID                             : 1
Format                         : AVC
Format/Info                    : Advanced Video Codec
Format profile                 : [email protected]
Format settings                : CABAC / 5 Ref Frames
Format settings, CABAC         : Yes
Format settings, Reference fra : 5 frames
Codec ID                       : V_MPEG4/ISO/AVC
Duration                       : 1 h 54 min
Bit rate                       : 899 kb/s
Width                          : 1 280 pixels
Height                         : 546 pixels
Display aspect ratio           : 2.35:1
Frame rate mode                : Constant
Frame rate                     : 23.976 (24000/1001) FPS
Color space                    : YUV
Chroma subsampling             : 4:2:0
Bit depth                      : 8 bits
Scan type                      : Progressive
Bits/(Pixel*Frame)             : 0.054
Stream size                    : 735 MiB (78%)
Title                          : GOPI SAHI
Writing library                : x264 core 157 r2935 545de2f

Audio #1
ID                             : 2
Format                         : AAC LC
Format/Info                    : Advanced Audio Codec Low Complexity
Codec ID                       : A_AAC-2
Duration                       : 1 h 54 min
Bit rate                       : 96.0 kb/s
Channel(s)                     : 2 channels
Channel layout                 : L R
Sampling rate                  : 48.0 kHz
Frame rate                     : 46.875 FPS (1024 SPF)
Compression mode               : Lossy
Delay relative to video        : 1 s 158 ms
Stream size                    : 78.7 MiB (8%)
Title                          : GOPI SAHI
Language                       : Hindi
Default                        : Yes
Forced                         : No

Audio #2
ID                             : 3
Format                         : AAC LC
Format/Info                    : Advanced Audio Codec Low Complexity
Codec ID                       : A_AAC-2
Duration                       : 1 h 54 min
Bit rate                       : 96.0 kb/s
Channel(s)                     : 2 channels
Channel layout                 : L R
Sampling rate                  : 48.0 kHz
Frame rate                     : 46.875 FPS (1024 SPF)
Compression mode               : Lossy
Delay relative to video        : -21 ms
Stream size                    : 78.7 MiB (8%)
Title                          : GOPI SAHI
Language                       : English
Default                        : No
Forced                         : No

Text #1
ID                             : 4
Format                         : PGS
Muxing mode                    : zlib
Codec ID                       : S_HDMV/PGS
Codec ID/Info                  : Picture based subtitle format used on BDs/HD-DVDs
Duration                       : 1 h 49 min
Bit rate                       : 39.6 kb/s
Count of elements              : 3884
Stream size                    : 31.0 MiB (3%)
Title                          : GOPI SAHI
Language                       : English
Default                        : Yes
Forced                         : Yes

Text #2
ID                             : 5
Format                         : PGS
Muxing mode                    : zlib
Codec ID                       : S_HDMV/PGS
Codec ID/Info                  : Picture based subtitle format used on BDs/HD-DVDs
Duration                       : 1 h 53 min
Bit rate                       : 72.8 kb/s
Count of elements              : 4230
Stream size                    : 58.9 MiB (6%)
Title                          : GOPI SAHI
Language                       : English
Default                        : No
Forced                         : No

Text #3
ID                             : 6
Format                         : PGS
Muxing mode                    : zlib
Codec ID                       : S_HDMV/PGS
Codec ID/Info                  : Picture based subtitle format used on BDs/HD-DVDs
Duration                       : 1 h 51 min
Bit rate                       : 75.2 kb/s
Count of elements              : 4774
Stream size                    : 59.9 MiB (6%)
Title                          : GOPI SAHI
Language                       : English
Default                        : No
Forced                         : No

Menu
00:00:00.000                   : :Forbidden City
00:07:34.496                   : :"What Brings You to New York?"
00:14:32.872                   : :Smokey and Beni
00:19:43.307                   : :Lord Rathbone
00:24:08.822                   : :Chasing Charlie
00:32:25.986                   : :Scotland Yard
00:40:53.534                   : :Holmes and Nevada
00:48:05.674                   : :Secret Passage
00:55:01.006                   : :Wu Chan
01:03:06.658                   : :Pillow Fight
01:10:32.145                   : :"Friends to the End"
01:18:29.580                   : :Madame Tussaud's
01:25:09.646                   : :Royal Fireworks
01:32:24.164                   : :"One More"
01:39:26.961                   : :Jump
01:45:22.483                   : :Outtakes