Skyfire 2019 x264 720p Esub BluRay English Hindi Chinese THE GOPI SAHI

 

Skyfire (2019)

Not Rated | | Action, Drama, Thriller | 12 February 2021 (USA)
 
 
Tianhuo Island is as beautiful as a paradise. It almost makes people forget that it is located in the "Ring of Fire" the world-famous Pacific Rim volcanic belt. The volcano erupted, and the fate of the people in the island was entangled.
EN

Director:

Simon West

Writers:

Wei Bu (screenplay), Sidney King (screenplay)
 
5.3/10
1,522
Directed bySimon West
Produced byChris Bremble
Jennifer Dong
John Hughes
Jazz Yanzhi Jiang
Charles Loi
Jib Polhemus
Aaron Shershow
Nancy Wu
Written byWei Bu
Sidney King
StarringWang Xueqi
Hannah Quinlivan
Shawn Dou
Jason Isaacs
Music byPinar Toprak
CinematographyAlan Caudillo
Release date
  • December 12, 2019
Running time
97 minutes[1]
CountryChina
LanguageMandarin
Box office$24.8 million[2][3]

 


Skyfire 2019 x264 720p Esub BluRay English Hindi Chinese THE GOPI SAHI

Format                         : Matroska
Format version                 : Version 4
File size                      : 796 MiB
Duration                       : 1 h 36 min
Overall bit rate               : 1 158 kb/s
Movie name                     : Skyfire 2019 GOPI SAHI
Encoded date                   : UTC 2021-04-10 02:37:14

Video
ID                             : 1
Format                         : AVC
Format/Info                    : Advanced Video Codec
Format profile                 : [email protected]
Format settings                : CABAC / 5 Ref Frames
Format settings, CABAC         : Yes
Format settings, Reference fra : 5 frames
Codec ID                       : V_MPEG4/ISO/AVC
Duration                       : 1 h 33 min
Bit rate                       : 899 kb/s
Width                          : 1 280 pixels
Height                         : 536 pixels
Display aspect ratio           : 2.40:1
Frame rate mode                : Constant
Frame rate                     : 23.976 (24000/1001) FPS
Color space                    : YUV
Chroma subsampling             : 4:2:0
Bit depth                      : 8 bits
Scan type                      : Progressive
Bits/(Pixel*Frame)             : 0.055
Stream size                    : 600 MiB (75%)
Title                          : GOPI SAHI
Writing library                : x264 core 157 r2935 545de2

Matrix coefficients            : BT.709

Audio #1
ID                             : 2
Format                         : AAC LC
Format/Info                    : Advanced Audio Codec Low Complexity
Codec ID                       : A_AAC-2
Duration                       : 1 h 33 min
Bit rate                       : 96.0 kb/s
Channel(s)                     : 2 channels
Channel layout                 : L R
Sampling rate                  : 48.0 kHz
Frame rate                     : 46.875 FPS (1024 SPF)
Compression mode               : Lossy
Delay relative to video        : -21 ms
Stream size                    : 64.3 MiB (8%)
Title                          : GOPI SAHI
Language                       : Hindi
Default                        : Yes
Forced                         : No

Audio #2
ID                             : 3
Format                         : AAC LC
Format/Info                    : Advanced Audio Codec Low Complexity
Codec ID                       : A_AAC-2
Duration                       : 1 h 33 min
Bit rate                       : 96.0 kb/s
Channel(s)                     : 2 channels
Channel layout                 : L R
Sampling rate                  : 48.0 kHz
Frame rate                     : 46.875 FPS (1024 SPF)
Compression mode               : Lossy
Delay relative to video        : -21 ms
Stream size                    : 64.3 MiB (8%)
Title                          : GOPI SAHI
Language                       : English
Default                        : No
Forced                         : No

Audio #3
ID                             : 4
Format                         : AAC LC
Format/Info                    : Advanced Audio Codec Low Complexity
Codec ID                       : A_AAC-2
Duration                       : 1 h 36 min
Bit rate                       : 94.1 kb/s
Channel(s)                     : 2 channels
Channel layout                 : L R
Sampling rate                  : 48.0 kHz
Frame rate                     : 46.875 FPS (1024 SPF)
Compression mode               : Lossy
Delay relative to video        : -21 ms
Stream size                    : 64.6 MiB (8%)
Title                          : GOPI SAHI
Language                       : Chinese
Default                        : No
Forced                         : No

Text
ID                             : 5
Format                         : UTF-8
Codec ID                       : S_TEXT/UTF8
Codec ID/Info                  : UTF-8 Plain Text
Duration                       : 1 h 24 min
Bit rate                       : 32 b/s
Count of elements              : 697
Stream size                    : 19.8 KiB (0%)
Title                          : GOPI SAHI
Language                       : English
Default                        : Yes
Forced                         : No

Menu
00:00:00.000                   : :Chapter 1
00:12:00.720                   : :Chapter 2
00:23:08.053                   : :Chapter 3
00:37:37.255                   : :Chapter 4
00:50:04.668                   : :Chapter 5
01:03:15.458                   : :Chapter 6
01:17:21.303                   : :Chapter 7
01:29:07.008                   : :Chapter 8



 

MAGNET

TORRENT

TORRENT 2 ZIP FILE

GDRIVE FILE COPY


DWONLOAD AUTO START IN 20 SEC ZIP FILE


DOWNLOAD AND ONLINE DUBOX LINK = PASSWORD = vavj

MULTIUP

MEDIAFIRE

ONLINE 720P

 

Post a Comment

0 Comments