Spy Game 2001 x264 720p Esub BluRay Dual Audio English Hindi THE GOPI SAHI

 

Spy Game (2001)

 
 
Retiring CIA agent Nathan Muir recalls his training of Tom Bishop while working against agency politics to free him from his Chinese captors.
EN

Director:

Tony Scott

Writers:

Michael Frost Beckner (story), Michael Frost Beckner (screenplay) | 1 more credit »
 
7.1/10
147,359
Directed byTony Scott
Produced by
Screenplay by
Story byMichael Frost Beckner
Starring
Music byHarry Gregson-Williams
CinematographyDan Mindel
Edited byChristian Wagner
Production
companies
Distributed by
Release date
  • November 21, 2001 (United States)
Running time
126 minutes
CountryUnited States
LanguageEnglish
Budget$115 million[3]
Box office$143 million

Spy Game 2001 x264 720p Esub BluRay Dual Audio English Hindi THE GOPI SAHI

Format                         : Matroska
Format version                 : Version 4
File size                      : 1.15 GiB
Duration                       : 2 h 6 min
Overall bit rate               : 1 297 kb/s
Movie name                     : Spy Game 2001 GOPI SAHI
Encoded date                   : UTC 2021-04-25 00:58:01

Video
ID                             : 1
Format                         : AVC
Format/Info                    : Advanced Video Codec
Format profile                 : [email protected]
Format settings                : CABAC / 5 Ref Frames
Format settings, CABAC         : Yes
Format settings, Reference fra : 5 frames
Codec ID                       : V_MPEG4/ISO/AVC
Duration                       : 2 h 6 min
Bit rate                       : 899 kb/s
Width                          : 1 280 pixels
Height                         : 544 pixels
Display aspect ratio           : 2.35:1
Frame rate mode                : Constant
Frame rate                     : 23.976 (24000/1001) FPS
Color space                    : YUV
Chroma subsampling             : 4:2:0
Bit depth                      : 8 bits
Scan type                      : Progressive
Bits/(Pixel*Frame)             : 0.054
Stream size                    : 813 MiB (69%)
Title                          : GOPI SAHI
Writing library                : x264 core 157 r2935 545de2f

Audio #1
ID                             : 2
Format                         : AAC LC
Format/Info                    : Advanced Audio Codec Low Complexity
Codec ID                       : A_AAC-2
Duration                       : 2 h 6 min
Bit rate                       : 192 kb/s
Channel(s)                     : 6 channels
Channel layout                 : C L R Ls Rs LFE
Sampling rate                  : 48.0 kHz
Frame rate                     : 46.875 FPS (1024 SPF)
Compression mode               : Lossy
Delay relative to video        : -1 ms
Stream size                    : 174 MiB (15%)
Title                          : GOPI SAHI
Language                       : English
Default                        : Yes
Forced                         : No

Audio #2
ID                             : 3
Format                         : AAC LC
Format/Info                    : Advanced Audio Codec Low Complexity
Codec ID                       : A_AAC-2
Duration                       : 2 h 6 min
Bit rate                       : 192 kb/s
Channel(s)                     : 6 channels
Channel layout                 : L R C Cb Lb Rb
Sampling rate                  : 48.0 kHz
Frame rate                     : 46.875 FPS (1024 SPF)
Compression mode               : Lossy
Delay relative to video        : 198 ms
Stream size                    : 174 MiB (15%)
Title                          : GOPI SAHI
Language                       : Hindi
Default                        : No
Forced                         : No

Text
ID                             : 4
Format                         : PGS
Muxing mode                    : zlib
Codec ID                       : S_HDMV/PGS
Codec ID/Info                  : Picture based subtitle format used on BDs/HD-DVDs
Duration                       : 2 h 1 min
Bit rate                       : 38.4 kb/s
Count of elements              : 2897
Stream size                    : 33.4 MiB (3%)
Title                          : GOPI SAHI
Language                       : English
Default                        : Yes
Forced                         : Yes

Menu
00:00:00.000                   : :Chapter 1
00:08:24.129                   : :Chapter 2
00:11:54.756                   : :Chapter 3
00:19:08.022                   : :Chapter 4
00:27:59.720                   : :Chapter 5
00:33:22.125                   : :Chapter 6
00:40:13.328                   : :Chapter 7
00:47:55.373                   : :Chapter 8
00:50:50.047                   : :Chapter 9
00:57:17.851                   : :Chapter 10
01:01:47.037                   : :Chapter 11
01:08:15.883                   : :Chapter 12
01:15:05.126                   : :Chapter 13
01:22:25.899                   : :Chapter 14
01:24:54.548                   : :Chapter 15
01:26:04.076                   : :Chapter 16
01:30:24.002                   : :Chapter 17
01:35:34.103                   : :Chapter 18
01:38:24.732                   : :Chapter 19
01:48:53.110                   : :Chapter 20
01:54:36.411                   : :Chapter 21
02:01:33.995                   : :Chapter 22




MAGNET

TORRENT

TORRENT 2 ZIP FILE

GDRIVE FILE COPY

DWONLOAD AUTO START IN 20 SEC ZIP FILE

DOWNLOAD AND ONLINE DUBOX LINK = PASSWORD = bfn6

MULTIUP

  MIRRORACE

MEDIAFIRE

ONLINE 720P

 

Post a Comment

0 Comments