Steve Jobs 2015 x264 720p Esub BluRay Dual Audio English Hindi THE GOPI SAHI

Steve Jobs (2015)

 
 
Steve Jobs takes us behind the scenes of the digital revolution, to paint a portrait of the man at its epicenter. The story unfolds backstage at three iconic product launches, ending in 1998 with the unveiling of the iMac.
EN

Director:

Danny Boyle

Writers:

Aaron Sorkin (screenplay), Walter Isaacson (book)
 
7.2/10
156,859

 

Directed byDanny Boyle
Produced by
Screenplay byAaron Sorkin
Based onSteve Jobs
by Walter Isaacson
Starring
Music byDaniel Pemberton
CinematographyAlwin H. Küchler
Edited byElliot Graham
Production
companies
Distributed byUniversal Pictures[1]
Release date
  • September 5, 2015 (Telluride)
  • October 9, 2015 (United States)
  • November 13, 2015 (United Kingdom)
Running time
122 minutes[2]
Countries
  • United Kingdom
  • United States
LanguageEnglish
Budget$30 million[3]
Box office$34.4 million[3]



Steve Jobs 2015 x264 720p Esub BluRay Dual Audio English Hindi THE GOPI SAHI


Format                         : Matroska
Format version                 : Version 4
File size                      : 967 MiB
Duration                       : 2 h 2 min
Overall bit rate               : 1 105 kb/s
Movie name                     : Steve Jobs 2015 GOPI SAHI
Encoded date                   : UTC 2021-04-10 02:21:36

Video
ID                             : 1
Format                         : AVC
Format/Info                    : Advanced Video Codec
Format profile                 : [email protected]
Format settings                : CABAC / 5 Ref Frames
Format settings, CABAC         : Yes
Format settings, Reference fra : 5 frames
Codec ID                       : V_MPEG4/ISO/AVC
Duration                       : 2 h 2 min
Bit rate                       : 899 kb/s
Width                          : 1 280 pixels
Height                         : 534 pixels
Display aspect ratio           : 2.40:1
Frame rate mode                : Constant
Frame rate                     : 23.976 (24000/1001) FPS
Color space                    : YUV
Chroma subsampling             : 4:2:0
Bit depth                      : 8 bits
Scan type                      : Progressive
Bits/(Pixel*Frame)             : 0.055
Stream size                    : 787 MiB (81%)
Title                          : GOPI SAHI
Writing library                : x264 core 157 r2935 545de2f

Audio #1
ID                             : 2
Format                         : AAC LC
Format/Info                    : Advanced Audio Codec Low Complexity
Codec ID                       : A_AAC-2
Duration                       : 2 h 2 min
Bit rate                       : 96.0 kb/s
Channel(s)                     : 2 channels
Channel layout                 : L R
Sampling rate                  : 48.0 kHz
Frame rate                     : 46.875 FPS (1024 SPF)
Compression mode               : Lossy
Delay relative to video        : -21 ms
Stream size                    : 84.3 MiB (9%)
Title                          : GOPI SAHI
Language                       : Hindi
Default                        : Yes
Forced                         : No

Audio #2
ID                             : 3
Format                         : AAC LC
Format/Info                    : Advanced Audio Codec Low Complexity
Codec ID                       : A_AAC-2
Duration                       : 2 h 2 min
Bit rate                       : 96.0 kb/s
Channel(s)                     : 2 channels
Channel layout                 : L R
Sampling rate                  : 48.0 kHz
Frame rate                     : 46.875 FPS (1024 SPF)
Compression mode               : Lossy
Delay relative to video        : -21 ms
Stream size                    : 84.4 MiB (9%)
Title                          : GOPI SAHI
Language                       : English
Default                        : No
Forced                         : No

Text
ID                             : 4
Format                         : VobSub
Muxing mode                    : zlib
Codec ID                       : S_VOBSUB
Codec ID/Info                  : Picture based subtitle format used on DVDs
Duration                       : 1 h 57 min
Bit rate                       : 18.7 kb/s
Count of elements              : 2613
Stream size                    : 15.8 MiB (2%)
Title                          : GOPI SAHI
Language                       : English

 




MAGNET

TORRENT

TORRENT 2 ZIP FILE

GDRIVE FILE COPY

DWONLOAD AUTO START IN 20 SEC ZIP FILE

DOWNLOAD AND ONLINE DUBOX LINK
= PASSWORD = w49e

MULTIUP

MEDIAFIRE


ONLINE 720P


Post a Comment

0 Comments