Stowaway 2021 x264 720p WebHD Esub Dual Audio English Hindi THE GOPI SAHI

Stowaway (2021)

TV-MA | | Drama, Sci-Fi, Thriller | 22 April 2021 (USA)
 
 
A stowaway on a mission to Mars sets off a series of unintended consequences.
EN

Director:

Joe Penna
 
5.3/10
410



Stowaway 2021 x264 720p WebHD Esub Dual Audio English Hindi THE GOPI SAHI


Format                         : Matroska
Format version                 : Version 4
File size                      : 915 MiB
Duration                       : 1 h 57 min
Overall bit rate               : 1 093 kb/s
Movie name                     : Stowaway 2021 GOPI SAHI
Encoded date                   : UTC 2021-04-22 16:15:15

Video
ID                             : 1
Format                         : AVC
Format/Info                    : Advanced Video Codec
Format profile                 : [email protected]
Format settings                : CABAC / 5 Ref Frames
Format settings, CABAC         : Yes
Format settings, Reference fra : 5 frames
Codec ID                       : V_MPEG4/ISO/AVC
Duration                       : 1 h 57 min
Bit rate                       : 899 kb/s
Width                          : 1 280 pixels
Height                         : 536 pixels
Display aspect ratio           : 2.40:1
Frame rate mode                : Constant
Frame rate                     : 24.000 FPS
Color space                    : YUV
Chroma subsampling             : 4:2:0
Bit depth                      : 8 bits
Scan type                      : Progressive
Bits/(Pixel*Frame)             : 0.055
Stream size                    : 752 MiB (82%)
Title                          : GOPI SAHI
Writing library                : x264 core 157 r2935 545de2f

Audio #1
ID                             : 2
Format                         : AAC LC
Format/Info                    : Advanced Audio Codec Low Complexity
Codec ID                       : A_AAC-2
Duration                       : 1 h 57 min
Bit rate                       : 96.0 kb/s
Channel(s)                     : 2 channels
Channel layout                 : L R
Sampling rate                  : 48.0 kHz
Frame rate                     : 46.875 FPS (1024 SPF)
Compression mode               : Lossy
Delay relative to video        : -21 ms
Stream size                    : 80.0 MiB (9%)
Title                          : GOPI SAHI
Language                       : Hindi
Default                        : Yes
Forced                         : No

Audio #2
ID                             : 3
Format                         : AAC LC
Format/Info                    : Advanced Audio Codec Low Complexity
Codec ID                       : A_AAC-2
Duration                       : 1 h 57 min
Bit rate                       : 96.0 kb/s
Channel(s)                     : 2 channels
Channel layout                 : L R
Sampling rate                  : 48.0 kHz
Frame rate                     : 46.875 FPS (1024 SPF)
Compression mode               : Lossy
Delay relative to video        : -21 ms
Stream size                    : 80.0 MiB (9%)
Title                          : GOPI SAHI
Language                       : English
Default                        : No
Forced                         : No

Text
Language                       : English


 




MAGNET

TORRENT

TORRENT 2 ZIP FILE

GDRIVE FILE COPY


DWONLOAD AUTO START IN 20 SEC ZIP FILE

DOWNLOAD AND ONLINE DUBOX LINK = PASSWORD = b2yj

MULTIUP

MEDIAFIRE

ONLINE 720P