The Big Bull 2021 x264 720p WebHD Esub Hindi THE GOPI SAHI

 

The Big Bull (2021)

 
 
The story of the film is based on real events of financial market that took place between 1990 and 2000 involving Harshad Mehta and his financial crimes.

Director:

Kookie Gulati
 
4.8/10
784

 

 
The Big Bull 2021 x264 720p WebHD Esub Hindi THE GOPI SAHI

Format                         : Matroska
Format version                 : Version 4
File size                      : 1.07 GiB
Duration                       : 2 h 33 min
Overall bit rate               : 997 kb/s
Movie name                     : The Big Bull 2021 GOPI SAHI
Encoded date                   : UTC 2021-04-09 03:41:20

Video
ID                             : 1
Format                         : AVC
Format/Info                    : Advanced Video Codec
Format profile                 : [email protected]
Format settings                : CABAC / 5 Ref Frames
Format settings, CABAC         : Yes
Format settings, Reference fra : 5 frames
Codec ID                       : V_MPEG4/ISO/AVC
Duration                       : 2 h 33 min
Bit rate                       : 899 kb/s
Width                          : 1 280 pixels
Height                         : 544 pixels
Display aspect ratio           : 2.35:1
Frame rate mode                : Constant
Frame rate                     : 24.000 FPS
Color space                    : YUV
Chroma subsampling             : 4:2:0
Bit depth                      : 8 bits
Scan type                      : Progressive
Bits/(Pixel*Frame)             : 0.054
Stream size                    : 988 MiB (90%)
Title                          : GOPI SAHI
Writing library                : x264 core 157 r2935 545de2f

Audio
ID                             : 2
Format                         : AAC LC
Format/Info                    : Advanced Audio Codec Low Complexity
Codec ID                       : A_AAC-2
Duration                       : 2 h 33 min
Bit rate                       : 96.0 kb/s
Channel(s)                     : 2 channels
Channel layout                 : L R
Sampling rate                  : 48.0 kHz
Frame rate                     : 46.875 FPS (1024 SPF)
Compression mode               : Lossy
Delay relative to video        : -21 ms
Stream size                    : 105 MiB (10%)
Title                          : GOPI SAHI
Language                       : Hindi

Text
Language                       : English

Post a Comment

0 Comments