The Boy Next Door 2015 x264 720p Esub BluRay Dual Audio English Hindi THE GOPI SAHI

The Boy Next Door (2015)

 
 
A woman, separated from her unfaithful husband, falls for a younger man who has moved in next door, but their torrid affair soon takes a dangerous turn.

Director:

Rob Cohen

Writer:

Barbara Curry
 
4.7/10
38,378
Directed byRob Cohen
Produced by
Written byBarbara Curry
Starring
Music byRandy Edelman
Nathan Barr
CinematographyDave McFarland
Edited byMichel Aller
Production
companies
Distributed byUniversal Pictures[1]
Release date
  • January 23, 2015 (United States)
Running time
90 minutes[2]
CountryUnited States
LanguageEnglish
Budget$4 million[3][4]
Box office$52.4 million[4]

 

 The Boy Next Door 2015 x264 720p Esub BluRay Dual Audio English Hindi THE GOPI SAHI

Format                         : Matroska
Format version                 : Version 4
File size                      : 717 MiB
Duration                       : 1 h 30 min
Overall bit rate               : 1 106 kb/s
Movie name                     : The Boy Next Door 2015 GOPI SAHI

Video
ID                             : 1
Format                         : AVC
Format/Info                    : Advanced Video Codec
Format profile                 : [email protected]
Format settings                : CABAC / 5 Ref Frames
Format settings, CABAC         : Yes
Format settings, Reference fra : 5 frames
Codec ID                       : V_MPEG4/ISO/AVC
Duration                       : 1 h 30 min
Bit rate                       : 899 kb/s
Width                          : 1 280 pixels
Height                         : 534 pixels
Display aspect ratio           : 2.40:1
Frame rate mode                : Constant
Frame rate                     : 23.976 (24000/1001) FPS
Color space                    : YUV
Chroma subsampling             : 4:2:0
Bit depth                      : 8 bits
Scan type                      : Progressive
Bits/(Pixel*Frame)             : 0.055
Stream size                    : 581 MiB (81%)
Title                          : GOPI SAHI
Writing library                : x264 core 157 r2935 545de2f

Audio #1
ID                             : 2
Format                         : AAC LC
Format/Info                    : Advanced Audio Codec Low Complexity
Codec ID                       : A_AAC-2
Duration                       : 1 h 30 min
Bit rate                       : 96.0 kb/s
Channel(s)                     : 2 channels
Channel layout                 : L R
Sampling rate                  : 48.0 kHz
Frame rate                     : 46.875 FPS (1024 SPF)
Compression mode               : Lossy
Delay relative to video        : 1 s 18 ms
Stream size                    : 62.5 MiB (9%)
Title                          : GOPI SAHI
Language                       : Hindi
Default                        : Yes
Forced                         : No

Audio #2
ID                             : 3
Format                         : AAC LC
Format/Info                    : Advanced Audio Codec Low Complexity
Codec ID                       : A_AAC-2
Duration                       : 1 h 30 min
Bit rate                       : 96.0 kb/s
Channel(s)                     : 2 channels
Channel layout                 : L R
Sampling rate                  : 48.0 kHz
Frame rate                     : 46.875 FPS (1024 SPF)
Compression mode               : Lossy
Delay relative to video        : -21 ms
Stream size                    : 62.4 MiB (9%)
Title                          : GOPI SAHI
Language                       : English
Default                        : No
Forced                         : No

Text #1
ID                             : 4
Format                         : PGS
Muxing mode                    : zlib
Codec ID                       : S_HDMV/PGS
Codec ID/Info                  : Picture based subtitle format used on BDs/HD-DVDs
Duration                       : 1 h 18 min
Bit rate                       : 671 b/s
Count of elements              : 52
Stream size                    : 385 KiB (0%)
Title                          : GOPI SAHI
Language                       : Hindi
Default                        : Yes
Forced                         : Yes

Text #2
ID                             : 5
Format                         : PGS
Muxing mode                    : zlib
Codec ID                       : S_HDMV/PGS
Codec ID/Info                  : Picture based subtitle format used on BDs/HD-DVDs
Duration                       : 1 h 23 min
Bit rate                       : 44.9 kb/s
Count of elements              : 2986
Stream size                    : 26.9 MiB (4%)
Title                          : GOPI SAHI
Language                       : English
Default                        : No
Forced                         : No

Menu
00:00:00.000                   : :Chapter 1
00:04:29.811                   : :Chapter 2
00:10:40.098                   : :Chapter 3
00:15:32.890                   : :Chapter 4
00:20:31.188                   : :Chapter 5
00:24:41.730                   : :Chapter 6
00:26:53.570                   : :Chapter 7
00:30:49.681                   : :Chapter 8
00:35:51.441                   : :Chapter 9
00:40:20.627                   : :Chapter 10
00:45:47.536                   : :Chapter 11
00:49:24.795                   : :Chapter 12
00:53:28.956                   : :Chapter 13
00:56:43.650                   : :Chapter 14
01:00:45.851                   : :Chapter 15
01:03:44.988                   : :Chapter 16
01:09:31.042                   : :Chapter 17
01:14:06.609                   : :Chapter 18
01:19:50.953                   : :Chapter 19
01:24:33.527                   : :Chapter 20




 

Post a Comment

0 Comments