The Mechanic 2011 x264 720p Esub BluRay Dual Audio English Hindi THE GOPI SAHI

The Mechanic (2011)

 
 
An elite hitman teaches his trade to an apprentice who has a connection to one of his previous victims.
EN

Director:

Simon West

Writers:

Richard Wenk (screenplay), Lewis John Carlino (screenplay) | 1 more credit »
 
6.6/10
152,182
 
 
Directed bySimon West
Produced by
Screenplay by
Story byLewis John Carlino
Starring
Music byMark Isham
CinematographyEric Schmidt
Edited by
  • T.G. Herrington
  • Todd E. Miller
Production
companies
Millennium Films
Chartoff-Winkler Productions[1]
Distributed byCBS Films
Release date
  • January 28, 2011 (United States)
Running time
93 minutes
CountryUnited States
LanguageEnglish
Budget$40 million[2]
Box office$76.3 million[1][2]

 
The Mechanic 2011 x264 720p Esub BluRay Dual Audio English Hindi THE GOPI SAHI

Format                         : Matroska
Format version                 : Version 4
File size                      : 848 MiB
Duration                       : 1 h 32 min
Overall bit rate               : 1 285 kb/s
Movie name                     : The Mechanic 2011 GOPISAHI
Encoded date                   : UTC 2019-08-10 14:51:07

Video
ID                             : 1
Format                         : AVC
Format/Info                    : Advanced Video Codec
Format profile                 : [email protected]
Format settings                : CABAC / 12 Ref Frames
Format settings, CABAC         : Yes
Format settings, Reference fra : 12 frames
Codec ID                       : V_MPEG4/ISO/AVC
Duration                       : 1 h 32 min
Bit rate                       : 899 kb/s
Width                          : 1 280 pixels
Height                         : 534 pixels
Display aspect ratio           : 2.40:1
Frame rate mode                : Constant
Frame rate                     : 23.976 (24000/1001) FPS
Color space                    : YUV
Chroma subsampling             : 4:2:0
Bit depth                      : 8 bits
Scan type                      : Progressive
Bits/(Pixel*Frame)             : 0.055
Stream size                    : 593 MiB (70%)
Title                          : GOPISAHI
Writing library                : x264 core 157 r2935 545de2f

Audio #1
ID                             : 2
Format                         : AAC LC
Format/Info                    : Advanced Audio Codec Low Complexity
Codec ID                       : A_AAC-2
Duration                       : 1 h 32 min
Bit rate                       : 192 kb/s
Channel(s)                     : 6 channels
Channel layout                 : C L R Ls Rs LFE
Sampling rate                  : 48.0 kHz
Frame rate                     : 46.875 FPS (1024 SPF)
Compression mode               : Lossy
Delay relative to video        : 1 s 429 ms
Stream size                    : 127 MiB (15%)
Title                          : GOPISAHI
Language                       : Hindi
Default                        : Yes
Forced                         : No

Audio #2
ID                             : 3
Format                         : AAC LC
Format/Info                    : Advanced Audio Codec Low Complexity
Codec ID                       : A_AAC-2
Duration                       : 1 h 32 min
Bit rate                       : 192 kb/s
Channel(s)                     : 6 channels
Channel layout                 : C L R Ls Rs LFE
Sampling rate                  : 48.0 kHz
Frame rate                     : 46.875 FPS (1024 SPF)
Compression mode               : Lossy
Delay relative to video        : -1 ms
Stream size                    : 127 MiB (15%)
Title                          : GOPISAHI
Language                       : English
Default                        : No
Forced                         : No

Text
ID                             : 4
Format                         : UTF-8
Codec ID                       : S_TEXT/UTF8
Codec ID/Info                  : UTF-8 Plain Text
Duration                       : 1 h 19 min
Bit rate                       : 37 b/s
Count of elements              : 718
Stream size                    : 21.9 KiB (0%)
Title                          : GOPISAHI
Language                       : English
Default                        : Yes
Forced                         : No

Menu
00:00:00.000                   : en:Chapter 01
00:04:43.408                   : en:Chapter 02
00:12:14.400                   : en:Chapter 03
00:21:55.522                   : en:Chapter 04
00:31:14.831                   : en:Chapter 05
00:39:31.911                   : en:Chapter 06
00:48:57.059                   : en:Chapter 07
00:58:05.064                   : en:Chapter 08
01:06:54.885                   : en:Chapter 09
01:15:42.496                   : en:Chapter 10
01:22:48.338                   : en:Chapter 11
01:26:09.581                   : en:Chapter 12





 

Post a comment

0 Comments