The Town 2010 Extended Alternate Cut x264 720p Esub BluRay Dual Audio English Hindi THE GOPI SAHI

 

The Town (2010)

 
A longtime thief, planning his next job, tries to balance his feelings for a bank manager connected to an earlier heist, and a hell-bent F.B.I Agent looking to bring him and his crew down.
EN

Director:

Ben Affleck

Writers:

Peter Craig (screenplay), Ben Affleck (screenplay) | 2 more credits »
 
7.5/10

357,723

 

Directed byBen Affleck
Produced by
Screenplay by
Based onPrince of Thieves
by Chuck Hogan
Starring
Music by
CinematographyRobert Elswit
Edited byDylan Tichenor
Production
companies
Distributed byWarner Bros. Pictures
Release date
  • September 8, 2010 (Venice)
  • September 17, 2010 (United States)
Running time
124 minutes[1]
CountryUnited States
LanguageEnglish
Budget$37 million[2]
Box office$154 million[3]


 The Town 2010 Extended Alternate Cut x264 720p Esub BluRay Dual Audio English Hindi THE GOPI SAHI

Format                         : Matroska
Format version                 : Version 4
File size                      : 1.19 GiB
Duration                       : 2 h 33 min
Overall bit rate               : 1 109 kb/s
Movie name                     : The Town 2010 Extended Alternate Cut GOPI SAHI
Encoded date                   : UTC 2020-08-16 03:33:46

Video
ID                             : 1
Format                         : AVC
Format/Info                    : Advanced Video Codec
Format profile                 : [email protected]
Format settings                : CABAC / 5 Ref Frames
Format settings, CABAC         : Yes
Format settings, Reference fra : 5 frames
Codec ID                       : V_MPEG4/ISO/AVC
Duration                       : 2 h 33 min
Bit rate                       : 899 kb/s
Width                          : 1 280 pixels
Height                         : 534 pixels
Display aspect ratio           : 2.40:1
Frame rate mode                : Constant
Frame rate                     : 23.976 (24000/1001) FPS
Color space                    : YUV
Chroma subsampling             : 4:2:0
Bit depth                      : 8 bits
Scan type                      : Progressive
Bits/(Pixel*Frame)             : 0.055
Stream size                    : 987 MiB (81%)
Title                          : GOPI SAHI
Writing library                : x264 core 157 r2935 545de2f

Audio #1
ID                             : 2
Format                         : AAC LC
Format/Info                    : Advanced Audio Codec Low Complexity
Codec ID                       : A_AAC-2
Duration                       : 2 h 33 min
Bit rate                       : 96.0 kb/s
Channel(s)                     : 2 channels
Channel layout                 : L R
Sampling rate                  : 48.0 kHz
Frame rate                     : 46.875 FPS (1024 SPF)
Compression mode               : Lossy
Delay relative to video        : -21 ms
Stream size                    : 106 MiB (9%)
Title                          : GOPI SAHI
Language                       : Hindi
Default                        : Yes
Forced                         : No

Audio #2
ID                             : 3
Format                         : AAC LC
Format/Info                    : Advanced Audio Codec Low Complexity
Codec ID                       : A_AAC-2
Duration                       : 2 h 33 min
Bit rate                       : 96.0 kb/s
Channel(s)                     : 2 channels
Channel layout                 : L R
Sampling rate                  : 48.0 kHz
Frame rate                     : 46.875 FPS (1024 SPF)
Compression mode               : Lossy
Delay relative to video        : -21 ms
Stream size                    : 106 MiB (9%)
Title                          : GOPI SAHI
Language                       : English
Default                        : No
Forced                         : No

Text
ID                             : 4
Format                         : PGS
Muxing mode                    : zlib
Codec ID                       : S_HDMV/PGS
Codec ID/Info                  : Picture based subtitle format used on BDs/HD-DVDs
Duration                       : 2 h 31 min
Bit rate                       : 34.1 kb/s
Count of elements              : 3878
Stream size                    : 37.0 MiB (3%)
Title                          : GOPI SAHI
Language                       : English
Default                        : Yes
Forced                         : Yes

Menu
00:00:00.000                   : :00:00:00.000
00:10:53.278                   : :00:10:53.111
00:23:54.558                   : :00:23:54.433
00:44:12.275                   : :00:44:12.066
00:54:36.940                   : :00:54:36.690
01:06:36.451                   : :01:06:36.367
01:14:39.433                   : :01:14:39.266
01:27:29.369                   : :01:27:29.161
01:36:55.518                   : :01:36:55.393
01:53:48.613                   : :01:53:48.363
02:03:38.077                   : :02:03:37.910
02:14:45.077                   : :02:14:44.868
02:22:07.644                   : :02:22:07.477
02:27:14.993                   : :02:27:14.993




 MAGNET

TORRENT

TORRENT 2 ZIP FILE

GDRIVE FILE COPY

DWONLOAD AUTO START IN 20 SEC ZIP FILE

DOWNLOAD AND ONLINE DUBOX LINK = PASSWORD = efqs

MULTIUP


MEDIAFIRE

ONLINE 720P

 

Post a Comment

0 Comments