Things Heard and Seen 2021 x264 720p WebHD Esub Dual Audio English Hindi THE GOPI SAHI

 

Things Heard & Seen (2021)

TV-MA | | Drama, Horror, Mystery | 29 April 2021 (USA)
 
 
An artist relocates to the Hudson Valley and begins to suspect that her marriage has a sinister darkness, one that rivals her new home's history.
EN

Writers:

Elizabeth Brundage (based on the novel "All Things Cease to Appear" by), Shari Springer Berman (written for the screen by) | 1 more credit »
 
5.4/10
1,274


Things Heard and Seen 2021 x264 720p WebHD Esub Dual Audio English Hindi THE GOPI SAHI


Format                         : Matroska
Format version                 : Version 4
File size                      : 1.09 GiB
Duration                       : 2 h 1 min
Overall bit rate               : 1 281 kb/s
Movie name                     : Things Heard and Seen 2021 GOPI SAHI
Encoded date                   : UTC 2021-04-30 03:38:53

Video
ID                             : 1
Format                         : AVC
Format/Info                    : Advanced Video Codec
Format profile                 : [email protected]
Format settings                : CABAC / 5 Ref Frames
Format settings, CABAC         : Yes
Format settings, Reference fra : 5 frames
Codec ID                       : V_MPEG4/ISO/AVC
Duration                       : 2 h 1 min
Bit rate                       : 899 kb/s
Width                          : 1 280 pixels
Height                         : 720 pixels
Display aspect ratio           : 16:9
Frame rate mode                : Constant
Frame rate                     : 23.976 (24000/1001) FPS
Color space                    : YUV
Chroma subsampling             : 4:2:0
Bit depth                      : 8 bits
Scan type                      : Progressive
Bits/(Pixel*Frame)             : 0.041
Stream size                    : 781 MiB (70%)
Title                          : GOPI SAHI
Writing library                : x264 core 157 r2935 545de2f

Audio #1
ID                             : 2
Format                         : AAC LC
Format/Info                    : Advanced Audio Codec Low Complexity
Codec ID                       : A_AAC-2
Duration                       : 2 h 1 min
Bit rate                       : 192 kb/s
Channel(s)                     : 6 channels
Channel layout                 : C L R Ls Rs LFE
Sampling rate                  : 48.0 kHz
Frame rate                     : 46.875 FPS (1024 SPF)
Compression mode               : Lossy
Delay relative to video        : -21 ms
Stream size                    : 165 MiB (15%)
Title                          : GOPI SAHI
Language                       : Hindi
Default                        : Yes
Forced                         : No

Audio #2
ID                             : 3
Format                         : AAC LC
Format/Info                    : Advanced Audio Codec Low Complexity
Codec ID                       : A_AAC-2
Duration                       : 2 h 1 min
Bit rate                       : 192 kb/s
Channel(s)                     : 6 channels
Channel layout                 : C L R Ls Rs LFE
Sampling rate                  : 48.0 kHz
Frame rate                     : 46.875 FPS (1024 SPF)
Compression mode               : Lossy
Delay relative to video        : -21 ms
Stream size                    : 165 MiB (15%)
Title                          : GOPI SAHI
Language                       : English
Default                        : No
Forced                         : No

Text
ID                             : 4
Format                         : UTF-8
Codec ID                       : S_TEXT/UTF8
Codec ID/Info                  : UTF-8 Plain Text
Duration                       : 1 h 57 min
Bit rate                       : 83 b/s
Count of elements              : 1756
Stream size                    : 71.5 KiB (0%)
Title                          : GOPI SAHI
Language                       : English
Default                        : Yes
Forced                         : No



 

MAGNET

TORRENT


TORRENT 2 ZIP FILE

GDRIVE FILE COPY


DWONLOAD AUTO START IN 20 SEC ZIP FILE

DOWNLOAD AND ONLINE DUBOX LINK = PASSWORD = m2t2

MULTIUP

MIRRORACE

MEDIAFIRE

ONLINE 720P

 

Post a Comment

0 Comments