Thoda Pyaar Thoda Magic 2008 x264 720p BluRay Hindi THE GOPI SAHI

Thoda Pyaar Thoda Magic (2008)

Not Rated | | Comedy, Drama, Family | 28 June 2008 (USA) 
 
An angel, a man and 4 orphans come together to bring you a story filled with fun, excitement, tears, love and magic.
EN

Director:

Kunal Kohli

Writers:

Rohena Gera (screenplay), Kunal Kohli (story, screenplay, dialogue)
 
4.9/10
2,349
Film poster
Directed byKunal Kohli
Produced byAditya Chopra
Kunal Kohli
Written byKunal Kohli
StarringSaif Ali Khan
Rani Mukerji
Rishi Kapoor
Ameesha Patel
Music byShankar-Ehsaan-Loy
CinematographySudeep Chatterjee
Edited byAmitabh Shukla
Production
company
Distributed byYash Raj Films
Release date
  • 27 June 2008
Running time
137 minutes
CountryIndia
LanguageHindi
Budget230 million (US$3.2 million)[1]
Box office372.53 million (US$5.2 million)[1]

 


Thoda Pyaar Thoda Magic 2008 x264 720p Esub BluRay Hindi THE GOPI SAHI


Format                         : Matroska
Format version                 : Version 4
File size                      : 976 MiB
Duration                       : 2 h 16 min
Overall bit rate               : 997 kb/s
Movie name                     : THODA PYAAR THODA MAGIC 2008 GOPISAHI
Encoded date                   : UTC 2020-01-26 12:54:33

Video
ID                             : 1
Format                         : AVC
Format/Info                    : Advanced Video Codec
Format profile                 : [email protected]
Format settings                : CABAC / 12 Ref Frames
Format settings, CABAC         : Yes
Format settings, Reference fra : 12 frames
Codec ID                       : V_MPEG4/ISO/AVC
Duration                       : 2 h 16 min
Bit rate                       : 899 kb/s
Width                          : 1 280 pixels
Height                         : 538 pixels
Display aspect ratio           : 2.40:1
Frame rate mode                : Constant
Frame rate                     : 23.976 (24000/1001) FPS
Color space                    : YUV
Chroma subsampling             : 4:2:0
Bit depth                      : 8 bits
Scan type                      : Progressive
Bits/(Pixel*Frame)             : 0.054
Stream size                    : 879 MiB (90%)
Title                          : GOPISAHI
Writing library                : x264 core 157 r2935 545de2f


Audio
Format                         : AAC LC
Format/Info                    : Advanced Audio Codec Low Complexity
Codec ID                       : A_AAC-2
Duration                       : 2 h 16 min
Bit rate                       : 96.0 kb/s
Channel(s)                     : 2 channels
Channel layout                 : L R
Sampling rate                  : 48.0 kHz
Frame rate                     : 46.875 FPS (1024 SPF)
Compression mode               : Lossy
Delay relative to video        : -21 ms
Stream size                    : 94.2 MiB (10%)
Title                          : GOPISAHI
Language                       : Hindi

Text #1
Language                       : Arabic

Text #]
Language                       : Thai

Text #3
Language                       : Chinese





Post a Comment

0 Comments