You Me And Dupree 2006 x264 720p Esub BluRay Dual Audio English Hindi THE GOPI SAHI

 

You, Me and Dupree (2006)

PG-13 | | Comedy, Romance | 14 July 2006 (USA)
 
 
A best man (Wilson) stays on as a houseguest with the newlyweds, much to the couple's annoyance.
EN
5.6/10
78,792

 

Directed byAnthony Russo
Joe Russo
Produced by
Written byMichael LeSieur
Starring
Music byTheodore Shapiro
CinematographyCharles Minsky
Edited by
Production
companies
  • Avis-Davis Productions[1]
  • Stuber-Parent Productions[1]
Distributed byUniversal Pictures
Release date
  • July 14, 2006
Running time
109 minutes
Countries
  • United States
  • Germany[1]
LanguageEnglish
Budget$54 million[2]
Box office$130.4 million[2]    
 

You Me And Dupree 2006 x264 720p Esub BluRay Dual Audio English Hindi THE GOPI SAHI


Format                         : Matroska
Format version                 : Version 4
File size                      : 856 MiB
Duration                       : 1 h 49 min
Overall bit rate               : 1 095 kb/s
Movie name                     : You Me And Dupree 2006 GOPI SAHI
Encoded date                   : UTC 2021-04-08 15:30:20

Video
ID                             : 1
Format                         : AVC
Format/Info                    : Advanced Video Codec
Format profile                 : [email protected]
Format settings                : CABAC / 5 Ref Frames
Format settings, CABAC         : Yes
Format settings, Reference fra : 5 frames
Codec ID                       : V_MPEG4/ISO/AVC
Duration                       : 1 h 49 min
Bit rate                       : 899 kb/s
Width                          : 1 280 pixels
Height                         : 694 pixels
Display aspect ratio           : 1.85:1
Frame rate mode                : Constant
Frame rate                     : 23.976 (24000/1001) FPS
Color space                    : YUV
Chroma subsampling             : 4:2:0
Bit depth                      : 8 bits
Scan type                      : Progressive
Bits/(Pixel*Frame)             : 0.042
Stream size                    : 703 MiB (82%)
Title                          : GOPI SAHI
Writing library                : x264 core 157 r2935 545de2f

Audio #1
ID                             : 2
Format                         : AAC LC
Format/Info                    : Advanced Audio Codec Low Complexity
Codec ID                       : A_AAC-2
Duration                       : 1 h 49 min
Bit rate                       : 96.0 kb/s
Channel(s)                     : 2 channels
Channel layout                 : L R
Sampling rate                  : 48.0 kHz
Frame rate                     : 46.875 FPS (1024 SPF)
Compression mode               : Lossy
Delay relative to video        : -21 ms
Stream size                    : 75.4 MiB (9%)
Title                          : GOPI SAHI
Language                       : Hindi
Default                        : Yes
Forced                         : No

Audio #2
ID                             : 3
Format                         : AAC LC
Format/Info                    : Advanced Audio Codec Low Complexity
Codec ID                       : A_AAC-2
Duration                       : 1 h 49 min
Bit rate                       : 96.0 kb/s
Channel(s)                     : 2 channels
Channel layout                 : L R
Sampling rate                  : 48.0 kHz
Frame rate                     : 46.875 FPS (1024 SPF)
Compression mode               : Lossy
Delay relative to video        : -12 ms
Stream size                    : 75.4 MiB (9%)
Title                          : GOPI SAHI
Language                       : English
Default                        : No
Forced                         : No

Text
Language                       : English


Menu
00:00:00.000                   : :Getting Married
00:05:53.311                   : :The Best Man
00:10:24.290                   : :You Can't Sleep in a Bar
00:15:33.891                   : :A Week at the Most
00:22:35.771                   : :Family First
00:29:09.248                   : :Carl Time
00:36:44.452                   : :Hit the Road
00:44:07.436                   : :Gut Check Time
00:50:34.031                   : :Career Day
00:55:36.792                   : :Meet Me Halfway
01:02:33.541                   : :Getting Suspicious
01:07:37.428                   : :Rock Bottom
01:15:12.800                   : :Dinner With Dad
01:23:07.316                   : :Is Love Enough?
01:27:33.832                   : :Permission to Miss School
01:31:53.299                   : :Can You Get Me Ten Minutes in There?
01:36:09.222                   : :A Pretty Big Candle Stick
01:39:08.943                   : :He's On His Own
01:42:49.330                   : :"7 Different Kinds of Smoke"
01:44:17.543                   : :End Titles

 



 

MAGNET

TORRENT

TORRENT 2 ZIP FILE


GDRIVE FILE COPY

DWONLOAD AUTO START IN 20 SEC ZIP FILE


DOWNLOAD AND ONLINE DUBOX LINK = PASSWORD = cijq

MULTIUP

MEDIAFIRE

ONLINE 720P

 

Post a Comment

0 Comments