99 Songs 2021 x264 720p WebHD Esub Hindi THE GOPI SAHI

Directed byVishwesh Krishnamoorthy
Produced byA. R. Rahman
Screenplay byVishwesh Krishnamoorthy
Hussain Dalal (dialogue)
Story byA. R. Rahman
Vishwesh Krishnamoorthy
Starring
Music byA. R. Rahman
CinematographyTanay Satam
James Cowley
Edited byAkshay Mehta
Shreyas Beltangdy
Production
companies
Ideal Entertainment
YM Movies
Distributed byJio Studios
Release date
  • 9 October 2019 (Busan)
  • 16 April 2021 (India)
Running time
129 minutes
CountryIndia
LanguageHindi


99 Songs 2021 x264 720p WebHD Esub Hindi THE GOPI SAHI

Format                         : Matroska
Format version                 : Version 4
File size                      : 935 MiB
Duration                       : 2 h 11 min
Overall bit rate               : 997 kb/s
Movie name                     : 99 Songs 2021 GOPI SAHI
Encoded date                   : UTC 2021-05-21 06:23:30

Video
ID                             : 1
Format                         : AVC
Format/Info                    : Advanced Video Codec
Format profile                 : [email protected]
Format settings                : CABAC / 5 Ref Frames
Format settings, CABAC         : Yes
Format settings, Reference fra : 5 frames
Codec ID                       : V_MPEG4/ISO/AVC
Duration                       : 2 h 11 min
Bit rate                       : 899 kb/s
Width                          : 1 280 pixels
Height                         : 586 pixels
Display aspect ratio           : 2.2:1
Frame rate mode                : Constant
Frame rate                     : 24.000 FPS
Color space                    : YUV
Chroma subsampling             : 4:2:0
Bit depth                      : 8 bits
Scan type                      : Progressive
Bits/(Pixel*Frame)             : 0.050
Stream size                    : 843 MiB (90%)
Title                          : GOPI SAHI
Writing library                : x264 core 157 r2935 545de2f

Audio
ID                             : 2
Format                         : AAC LC
Format/Info                    : Advanced Audio Codec Low Complexity
Codec ID                       : A_AAC-2
Duration                       : 2 h 11 min
Bit rate                       : 96.0 kb/s
Channel(s)                     : 2 channels
Channel layout                 : L R
Sampling rate                  : 48.0 kHz
Frame rate                     : 46.875 FPS (1024 SPF)
Compression mode               : Lossy
Delay relative to video        : -63 ms
Stream size                    : 89.7 MiB (10%)
Title                          : GOPI SAHI
Language                       : Hindi
Default                        : Yes
Forced                         : No

Text
Language                       : English





MAGNET

TORRENT

TORRENT 2 480P AND 720P CHOOSE WHICH ONE DWONLOAD

GDRIVE FILE COPY

DWONLOAD AUTO START IN 20 SEC

DOWNLOAD AND ONLINE TERABOX LINK = PASSWORD = sbss

DWONLOAD AUTO START IN 20 SEC ZIP FILE


754 MB 480P DWONLOAD AUTO START IN 20 SEC


MULTIUP

MIRRORACE

MEDIAFIRE

ONLINE 720P

ONLINE 720P