Another Round A.K.A. Druk 2020 x264 720p WebHD Esub English Hindi Danish THE GOPI SAHI

Another Round (2020)

NR 09/24/2020 (DK) ComedyDrama 1h 57m 
 

Overview

Four high school teachers launch a drinking experiment: upholding a constant low level of intoxication.

DanishDruk
Directed byThomas Vinterberg
Produced by
Written by
Starring
Music byJanus Billeskov Jansen
CinematographySturla Brandth Grøvlen
Edited by
  • Anne Østerud
  • Janus Billeskov Jansen
Production
companies
Distributed by
Release date
  • 12 September 2020 (TIFF)[1]
  • 24 September 2020 (Denmark)
Running time
117 minutes
Countries
  • Denmark[2]
  • Netherlands
  • Sweden
LanguageDanish
Budgetkr33.5 million[3]
(US$5.7 million)
Box office$2.2 million[4]

 


Another Round A.K.A. Druk 2020 x264 720p WebHD Esub English Hindi Danish THE GOPI SAHI

Format                         : Matroska
Format version                 : Version 4
File size                      : 991 MiB
Duration                       : 1 h 56 min
Overall bit rate               : 1 190 kb/s
Movie name                     : Another Round A.K.A. Druk 2020 GOPI SAHI
Encoded date                   : UTC 2021-05-27 22:10:59

Video
ID                             : 1
Format                         : AVC
Format/Info                    : Advanced Video Codec
Format profile                 : [email protected]
Format settings                : CABAC / 5 Ref Frames
Format settings, CABAC         : Yes
Format settings, Reference fra : 5 frames
Codec ID                       : V_MPEG4/ISO/AVC
Duration                       : 1 h 56 min
Bit rate                       : 899 kb/s
Width                          : 1 280 pixels
Height                         : 640 pixels
Display aspect ratio           : 2.000
Frame rate mode                : Constant
Frame rate                     : 24.000 FPS
Color space                    : YUV
Chroma subsampling             : 4:2:0
Bit depth                      : 8 bits
Scan type                      : Progressive
Bits/(Pixel*Frame)             : 0.046
Stream size                    : 748 MiB (76%)
Title                          : GOPI SAHI
Writing library                : x264 core 157 r2935 545de2f

Audio #1
ID                             : 2
Format                         : AAC LC
Format/Info                    : Advanced Audio Codec Low Complexity
Codec ID                       : A_AAC-2
Duration                       : 1 h 56 min
Bit rate                       : 96.0 kb/s
Channel(s)                     : 2 channels
Channel layout                 : L R
Sampling rate                  : 48.0 kHz
Frame rate                     : 46.875 FPS (1024 SPF)
Compression mode               : Lossy
Delay relative to video        : -21 ms
Stream size                    : 79.8 MiB (8%)
Title                          : GOPI SAHI
Language                       : Hindi
Default                        : Yes
Forced                         : No

Audio #2
ID                             : 3
Format                         : AAC LC
Format/Info                    : Advanced Audio Codec Low Complexity
Codec ID                       : A_AAC-2
Duration                       : 1 h 56 min
Bit rate                       : 96.0 kb/s
Channel(s)                     : 2 channels
Channel layout                 : L R
Sampling rate                  : 48.0 kHz
Frame rate                     : 46.875 FPS (1024 SPF)
Compression mode               : Lossy
Delay relative to video        : -21 ms
Stream size                    : 79.7 MiB (8%)
Title                          : GOPI SAHI
Language                       : English
Default                        : No
Forced                         : No

Audio #3
ID                             : 4
Format                         : AAC LC
Format/Info                    : Advanced Audio Codec Low Complexity
Codec ID                       : A_AAC-2
Duration                       : 1 h 56 min
Bit rate                       : 96.0 kb/s
Channel(s)                     : 2 channels
Channel layout                 : L R
Sampling rate                  : 48.0 kHz
Frame rate                     : 46.875 FPS (1024 SPF)
Compression mode               : Lossy
Delay relative to video        : -21 ms
Stream size                    : 79.8 MiB (8%)
Title                          : GOPI SAHI
Language                       : Danish
Default                        : No
Forced                         : No

Text
ID                             : 5
Format                         : UTF-8
Codec ID                       : S_TEXT/UTF8
Codec ID/Info                  : UTF-8 Plain Text
Duration                       : 1 h 52 min
Bit rate                       : 45 b/s
Count of elements              : 1072
Stream size                    : 37.5 KiB (0%)
Title                          : GOPI SAHI
Language                       : English
Default                        : Yes
Forced                         : No
 




 MAGNET

TORRENT

TORRENT 2 480P AND 720P CHOOSE WHICH ONE DWONLOAD

GDRIVE FILE COPY

DWONLOAD AUTO START IN 20 SEC

DOWNLOAD AND ONLINE TERABOX LINK = PASSWORD = w945

DWONLOAD AUTO START IN 20 SEC ZIP FILE

659 MB HINDI 480P DWONLOAD AUTO START IN 20 SEC

MULTIUP

MIRRORACE

MEDIAFIRE

ONLINE 720P

ONLINE 720P