Ba Pass 3 2021 x264 720p WebHD Esub Hindi THE GOPI SAHI

B.A. Pass 3 (2021)

18 | | Drama | 1 May 2021 (India)

 

BA Pass 3 narrates the story of a jobless Anshul and how his life changes upside down when he meets a married woman and gets into a relationship with her.
EN

Director:

Narendra Singh

Writers:

Deep Chugh, Kritika Sachdeva (concept) | 1 more credit »
 
5.7/10
180

 

 
Ba Pass 3 2021 x264 720p WebHD Esub Hindi THE GOPI SAHI

Format                         : Matroska
Format version                 : Version 4
File size                      : 981 MiB
Duration                       : 2 h 17 min
Overall bit rate               : 997 kb/s
Movie name                     : Ba Pass 3 2021 GOPI SAHI
Encoded date                   : UTC 2021-05-02 04:46:58

Video
ID                             : 1
Format                         : AVC
Format/Info                    : Advanced Video Codec
Format profile                 : [email protected]
Format settings                : CABAC / 5 Ref Frames
Format settings, CABAC         : Yes
Format settings, Reference fra : 5 frames
Codec ID                       : V_MPEG4/ISO/AVC
Duration                       : 2 h 17 min
Bit rate                       : 899 kb/s
Width                          : 1 280 pixels
Height                         : 542 pixels
Display aspect ratio           : 2.35:1
Frame rate mode                : Constant
Frame rate                     : 24.000 FPS
Color space                    : YUV
Chroma subsampling             : 4:2:0
Bit depth                      : 8 bits
Scan type                      : Progressive
Bits/(Pixel*Frame)             : 0.054
Stream size                    : 884 MiB (90%)
Title                          : GOPI SAHI
Writing library                : x264 core 157 r2935 545de2f

Audio
ID                             : 2
Format                         : AAC LC
Format/Info                    : Advanced Audio Codec Low Complexity
Codec ID                       : A_AAC-2
Duration                       : 2 h 17 min
Bit rate                       : 96.0 kb/s
Channel(s)                     : 2 channels
Channel layout                 : L R
Sampling rate                  : 48.0 kHz
Frame rate                     : 46.875 FPS (1024 SPF)
Compression mode               : Lossy
Delay relative to video        : -65 ms
Stream size                    : 94.8 MiB (10%)
Title                          : GOPI SAHI
Language                       : Hindi
Default                        : Yes
Forced                         : No




 MAGNET

TORRENT

TORRENT 2 ZIP FILE

GDRIVE FILE COPY

DWONLOAD AUTO START IN 20 SEC ZIP FILE

DOWNLOAD AND ONLINE DUBOX LINK = PASSWORD = jzyr

MULTIUP

MIRRORACE

MEDIAFIRE

ONLINE 720P

 

Post a comment

0 Comments