Beauty and the Beast 2014 x264 720p Esub BluRay Dual Audio English Hindi THE GOPI SAHI

Beauty and the Beast (2014)

PG 06/09/2014 (US) FantasyRomance 1h 52m

The legend is reborn...

Overview

 

Beauty and the Beast is the adaptation of a story by Madame de Villeneuve. Published anonymously in 1740 as La Jeune Américaine et les contes marins, it paints a portrait of Belle, a joyful and touching young girl who falls in love with the Beast, a cursed creature in search of love and redemption. In 1760, a condensed children’s version was published. It was from this version that Jean Cocteau and then Walt Disney drew their famous adaptations. Overshadowed, the original version by Madame de Villeneuve has never been adapted for the screen... until now!

  1. Christophe Gans

    Director, Screenplay

  2. Jeanne-Marie Leprince de Beaumont

    Novel

  3. Sandra Vo-Anh

    Screenplay

Directed byChristophe Gans
Produced byRichard Grandpierre
Written by
  • Christophe Gans
  • Sandra Vo-Anh
Based onBeauty and the Beast
by Gabrielle-Suzanne Barbot de Villeneuve
Starring
Music byPierre Adenot
CinematographyChristophe Beaucarne
Edited bySébastien Prangère
Production
companies
Distributed by
Release date
  • 12 February 2014 (France)
  • 14 February 2014 (Berlin)
Running time
112 minutes[1]
Countries
  • France
  • Germany
LanguageFrench
Budget€35 million[2]
Box office$47,430,624[3

 

 


Beauty and the Beast 2014 x264 720p Esub BluRay Dual Audio English Hindi THE GOPI SAHI


Format                         : Matroska
Format version                 : Version 4
File size                      : 895 MiB
Duration                       : 1 h 53 min
Overall bit rate               : 1 106 kb/s
Movie name                     : Beauty and the Beast 2014 GOPI SAHI
Encoded date                   : UTC 2021-05-21 00:33:01

Video
ID                             : 1
Format                         : AVC
Format/Info                    : Advanced Video Codec
Format profile                 : [email protected]
Format settings                : CABAC / 5 Ref Frames
Format settings, CABAC         : Yes
Format settings, Reference fra : 5 frames
Codec ID                       : V_MPEG4/ISO/AVC
Duration                       : 1 h 53 min
Bit rate                       : 899 kb/s
Width                          : 1 280 pixels
Height                         : 536 pixels
Display aspect ratio           : 2.40:1
Frame rate mode                : Constant
Frame rate                     : 24.000 FPS
Color space                    : YUV
Chroma subsampling             : 4:2:0
Bit depth                      : 8 bits
Scan type                      : Progressive
Bits/(Pixel*Frame)             : 0.055
Stream size                    : 727 MiB (81%)
Title                          : GOPI SAHI
Writing library                : x264 core 157 r2935 545de2f

Audio #1
ID                             : 2
Format                         : AAC LC
Format/Info                    : Advanced Audio Codec Low Complexity
Codec ID                       : A_AAC-2
Duration                       : 1 h 53 min
Bit rate                       : 96.0 kb/s
Channel(s)                     : 2 channels
Channel layout                 : L R
Sampling rate                  : 48.0 kHz
Frame rate                     : 46.875 FPS (1024 SPF)
Compression mode               : Lossy
Delay relative to video        : 80 ms
Stream size                    : 78.0 MiB (9%)
Title                          : GOPI SAHI
Language                       : Hindi
Default                        : Yes
Forced                         : No

Audio #2
ID                             : 3
Format                         : AAC LC
Format/Info                    : Advanced Audio Codec Low Complexity
Codec ID                       : A_AAC-2
Duration                       : 1 h 53 min
Bit rate                       : 96.0 kb/s
Channel(s)                     : 2 channels
Channel layout                 : L R
Sampling rate                  : 48.0 kHz
Frame rate                     : 46.875 FPS (1024 SPF)
Compression mode               : Lossy
Delay relative to video        : -21 ms
Stream size                    : 78.0 MiB (9%)
Title                          : GOPI SAHI
Language                       : English
Default                        : No
Forced                         : No

Text
ID                             : 4
Format                         : PGS
Muxing mode                    : zlib
Codec ID                       : S_HDMV/PGS
Codec ID/Info                  : Picture based subtitle format used on BDs/HD-DVDs
Duration                       : 1 h 43 min
Bit rate                       : 19.1 kb/s
Count of elements              : 1958
Stream size                    : 14.2 MiB (2%)
Title                          : GOPI SAHI
Language                       : English
Default                        : No
Forced                         : No

Menu
00:00:00.000                   : :Chapter 1
00:09:51.500                   : :Chapter 2
00:17:17.417                   : :Chapter 3
00:25:14.542                   : :Chapter 4
00:31:50.292                   : :Chapter 5
00:40:06.125                   : :Chapter 6
00:49:23.292                   : :Chapter 7
00:56:07.167                   : :Chapter 8
01:06:28.667                   : :Chapter 9
01:11:15.500                   : :Chapter 10
01:19:45.625                   : :Chapter 11
01:28:40.667                   : :Chapter 12





MAGNET

TORRENT


TORRENT 2 480P AND 720P CHOOSE WHICH ONE DWONLOAD


GDRIVE FILE COPY

DWONLOAD AUTO START IN 20 SEC

DOWNLOAD AND ONLINE TERABOX LINK = PASSWORD = fjup

DWONLOAD AUTO START IN 20 SEC ZIP FILE

695 MB 480P DWONLOAD AUTO START IN 20 SEC

MULTIUP

MIRRORACE

MEDIAFIRE

ONLINE 720P


ONLINE 720P

 

Post a Comment

0 Comments