Bullitt 1968 x264 720p Esub BluRay Dual Audio English Hindi THE GOPI SAHI

 

Bullitt (1968)

 

 

An all-guts, no-glory San Francisco cop becomes determined to find the underworld kingpin that killed the witness in his protection.

Director:

Peter Yates

Writers:

Alan Trustman (screenplay) (as Alan R. Trustman), Harry Kleiner (screenplay) | 1 more credit »
 
7.4/10
62,297
 
 
 
Directed byPeter Yates
Produced byPhilip D'Antoni
Screenplay byAlan R. Trustman
Harry Kleiner
Based onMute Witness
by Robert L. Fish
Starring
Music byLalo Schifrin
CinematographyWilliam A. Fraker
Edited byFrank P. Keller
Production
companies
Distributed byWarner Bros.-Seven Arts
Release date
  • October 17, 1968
[1]
Running time
113 minutes
CountryUnited States
LanguageEnglish
Budget$4 million[2]
Box office$42.3 million[3]

 

Bullitt 1968 x264 720p Esub BluRay Dual Audio English Hindi THE GOPI SAHI


Format                         : Matroska
Format version                 : Version 4
File size                      : 898 MiB
Duration                       : 1 h 53 min
Overall bit rate               : 1 104 kb/s
Movie name                     : Bullitt 1968 GOPI SAHI
Encoded date                   : UTC 2021-05-11 07:15:57

Video
ID                             : 1
Format                         : AVC
Format/Info                    : Advanced Video Codec
Format profile                 : [email protected]
Format settings                : CABAC / 5 Ref Frames
Format settings, CABAC         : Yes
Format settings, Reference fra : 5 frames
Codec ID                       : V_MPEG4/ISO/AVC
Duration                       : 1 h 53 min
Bit rate                       : 899 kb/s
Width                          : 1 280 pixels
Height                         : 724 pixels
Display aspect ratio           : 16:9
Frame rate mode                : Constant
Frame rate                     : 23.976 (24000/1001) FPS
Color space                    : YUV
Chroma subsampling             : 4:2:0
Bit depth                      : 8 bits
Scan type                      : Progressive
Bits/(Pixel*Frame)             : 0.040
Stream size                    : 731 MiB (81%)
Title                          : GOPI SAHI
Writing library                : x264 core 157 r2935 545de2f

Audio #1
ID                             : 2
Format                         : AAC LC
Format/Info                    : Advanced Audio Codec Low Complexity
Codec ID                       : A_AAC-2
Duration                       : 1 h 53 min
Bit rate                       : 96.0 kb/s
Channel(s)                     : 2 channels
Channel layout                 : L R
Sampling rate                  : 48.0 kHz
Frame rate                     : 46.875 FPS (1024 SPF)
Compression mode               : Lossy
Delay relative to video        : -21 ms
Stream size                    : 78.6 MiB (9%)
Title                          : GOPI SAHI
Language                       : Hindi
Default                        : Yes
Forced                         : No

Audio #2
ID                             : 3
Format                         : AAC LC
Format/Info                    : Advanced Audio Codec Low Complexity
Codec ID                       : A_AAC-2
Duration                       : 1 h 53 min
Bit rate                       : 96.0 kb/s
Channel(s)                     : 2 channels
Channel layout                 : L R
Sampling rate                  : 48.0 kHz
Frame rate                     : 46.875 FPS (1024 SPF)
Compression mode               : Lossy
Delay relative to video        : -21 ms
Stream size                    : 78.5 MiB (9%)
Title                          : GOPI SAHI
Language                       : English
Default                        : No
Forced                         : No

Text
ID                             : 4
Format                         : PGS
Muxing mode                    : zlib
Codec ID                       : S_HDMV/PGS
Codec ID/Info                  : Picture based subtitle format used on BDs/HD-DVDs
Duration                       : 1 h 50 min
Bit rate                       : 30.7 kb/s
Count of elements              : 1380
Stream size                    : 24.2 MiB (3%)
Title                          : GOPI SAHI
Language                       : English
Default                        : No
Forced                         : No

Menu
00:00:00.000                   : :Marked Man
00:06:41.443                   : :Bullitt's Wakeup Call
00:08:48.361                   : :Chalmers' Important Job
00:15:58.166                   : :Cathy: At Work and Play
00:19:48.938                   : :The Hit
00:27:02.079                   : :The Hospital
00:33:16.745                   : :Chalmers Calls the Shots
00:37:10.353                   : :"Our Man's in the Hospital."
00:43:15.718                   : :Cardiac Arrest
00:49:46.066                   : :"Nail Him."
00:54:34.938                   : :Hitman's Trail
01:00:26.957                   : :Chalmers Serves a Writ
01:02:37.545                   : :Eddie's Information
01:05:16.162                   : :High-Speed Chase
01:15:52.923                   : :Bullitt's Report
01:19:16.585                   : :Death in San Mateo
01:22:09.508                   : :Bullitt's World
01:24:50.377                   : :Telltale Luggage
01:29:50.760                   : :Dead Man's Identity
01:32:54.778                   : :The Airport
01:39:45.062                   : :Dodging Jets and Bullets
01:51:58.754                   : :Face in the Mirror
01:53:09.366                   : :Cast List