By The Sea 2015 x264 720p Esub BluRay Dual Audio English Hindi THE GOPI SAHI

By the Sea (2015)

 
 
A couple tries to repair their marriage while staying at a hotel in France.
EN

Director:

Angelina Jolie (as Angelina Jolie Pitt)

Writer:

Angelina Jolie (as Angelina Jolie Pitt)
 
5.3/10
19,126

 

Directed byAngelina Jolie Pitt
Produced by
Written byAngelina Jolie Pitt
Starring
  • Brad Pitt
  • Angelina Jolie Pitt
Music byGabriel Yared
CinematographyChristian Berger
Edited by
Production
companies
Distributed byUniversal Pictures
Release date
  • November 5, 2015 (AFI Fest)
  • November 13, 2015 (United States)
Running time
122 minutes[1]
CountryUnited States
Languages
  • English
  • French
Budget$10 million[2]
Box office$3.3 million[2]

 


 By the Sea 2015 x264 720p Esub BluRay Dual Audio English Hindi THE GOPI SAHI


Format                         : Matroska
Format version                 : Version 4
File size                      : 1.10 GiB
Duration                       : 2 h 2 min
Overall bit rate               : 1 292 kb/s
Movie name                     : By the Sea 2015 GOPI SAHI
Encoded date                   : UTC 2021-05-17 10:33:24

Video
ID                             : 1
Format                         : AVC
Format/Info                    : Advanced Video Codec
Format profile                 : [email protected]
Format settings                : CABAC / 5 Ref Frames
Format settings, CABAC         : Yes
Format settings, Reference fra : 5 frames
Codec ID                       : V_MPEG4/ISO/AVC
Duration                       : 2 h 2 min
Bit rate                       : 899 kb/s
Width                          : 1 280 pixels
Height                         : 534 pixels
Display aspect ratio           : 2.40:1
Frame rate mode                : Constant
Frame rate                     : 23.976 (24000/1001) FPS
Color space                    : YUV
Chroma subsampling             : 4:2:0
Bit depth                      : 8 bits
Scan type                      : Progressive
Bits/(Pixel*Frame)             : 0.055
Stream size                    : 786 MiB (69%)
Title                          : GOPI SAHI
Writing library                : x264 core 157 r2935 545de2f

Audio #1
ID                             : 2
Format                         : AAC LC
Format/Info                    : Advanced Audio Codec Low Complexity
Codec ID                       : A_AAC-2
Duration                       : 2 h 2 min
Bit rate                       : 192 kb/s
Channel(s)                     : 6 channels
Channel layout                 : C L R Ls Rs LFE
Sampling rate                  : 48.0 kHz
Frame rate                     : 46.875 FPS (1024 SPF)
Compression mode               : Lossy
Delay relative to video        : 26 ms
Stream size                    : 168 MiB (15%)
Title                          : GOPI SAHI
Language                       : Hindi
Default                        : Yes
Forced                         : No

Audio #2
ID                             : 3
Format                         : AAC LC
Format/Info                    : Advanced Audio Codec Low Complexity
Codec ID                       : A_AAC-2
Duration                       : 2 h 2 min
Bit rate                       : 192 kb/s
Channel(s)                     : 6 channels
Channel layout                 : C L R Ls Rs LFE
Sampling rate                  : 48.0 kHz
Frame rate                     : 46.875 FPS (1024 SPF)
Compression mode               : Lossy
Delay relative to video        : -21 ms
Stream size                    : 168 MiB (15%)
Title                          : GOPI SAHI
Language                       : English
Default                        : No
Forced                         : No

Text #1
ID                             : 4
Format                         : PGS
Muxing mode                    : zlib
Codec ID                       : S_HDMV/PGS
Codec ID/Info                  : Picture based subtitle format used on BDs/HD-DVDs
Duration                       : 1 h 55 min
Bit rate                       : 3 147 b/s
Count of elements              : 400
Stream size                    : 2.61 MiB (0%)
Title                          : GOPI SAHI
Language                       : Hindi
Default                        : Yes
Forced                         : No

Text #2
ID                             : 5
Format                         : PGS
Muxing mode                    : zlib
Codec ID                       : S_HDMV/PGS
Codec ID/Info                  : Picture based subtitle format used on BDs/HD-DVDs
Duration                       : 1 h 57 min
Bit rate                       : 19.7 kb/s
Count of elements              : 2148
Stream size                    : 16.5 MiB (1%)
Title                          : GOPI SAHI
Language                       : English
Default                        : No
Forced                         : No

Menu
00:00:00.000                   : :Chapter 1
00:05:50.225                   : :Chapter 2
00:13:54.167                   : :Chapter 3
00:21:39.048                   : :Chapter 4
00:26:29.505                   : :Chapter 5
00:32:46.590                   : :Chapter 6
00:38:29.682                   : :Chapter 7
00:44:47.685                   : :Chapter 8
00:50:43.999                   : :Chapter 9
00:57:10.469                   : :Chapter 10
01:03:00.443                   : :Chapter 11
01:06:42.582                   : :Chapter 12
01:11:42.381                   : :Chapter 13
01:17:12.545                   : :Chapter 14
01:24:36.863                   : :Chapter 15
01:30:59.996                   : :Chapter 16
01:36:52.473                   : :Chapter 17
01:46:12.408                   : :Chapter 18
01:53:27.342                   : :Chapter 19
01:58:08.582                   : :Chapter 20



 

MAGNET

TORRENT

TORRENT 2

GDRIVE FILE COPY

DWONLOAD AUTO START IN 20 SEC 


DWONLOAD AUTO START IN 20 SEC ZIP FILE

 

644 MB 480P HINDI AUTO START

 

DOWNLOAD AND ONLINE TERABOX LINK = PASSWORD = x47g

MULTIUP

MIRRORACE

MEDIAFIRE

ONLINE 720P

ONLINE 720P