Cabin Fever 2002 x264 720p Esub BluRay Dual Audio English Hindi THE GOPI SAHI

Cabin Fever (2003)

R 09/12/2003 (US) Horror 1h 33m 
 

Terror… in the flesh.

Overview

A group of five college graduates rent a cabin in the woods and begin to fall victim to a horrifying flesh-eating virus, which attracts the unwanted attention of the homicidal locals.

  1. Eli Roth

    Director, Screenplay

  2. Randy Pearlstein

    Screenplay

Directed byEli Roth
Produced by
  • Lauren Moews
  • Sam Froelich
  • Evan Astrowsky
  • Eli Roth
Written by
  • Eli Roth
  • Randy Pearlstein
Story byEli Roth
Starring
Music byNathan Barr
CinematographyScott Kevan
Edited byRyan Folsey
Production
companies
  • Deer Path Films
  • Down Home Entertainment
  • Tonic Films
Distributed by
Release date
  • September 14, 2002 (TIFF)
  • September 12, 2003 (United States)
Running time
94 minutes
CountryUnited States
LanguageEnglish
Budget$1.5 million[1]
Box office$30.6 million[1]

 

Cabin Fever 2002 x264 720p Esub BluRay Dual Audio English Hindi THE GOPI SAHI


Format                         : Matroska
Format version                 : Version 4
File size                      : 766 MiB
Duration                       : 1 h 37 min
Overall bit rate               : 1 095 kb/s
Movie name                     : Cabin Fever 2002 GOPI SAHI
Encoded date                   : UTC 2021-05-23 06:42:58

Video
ID                             : 1
Format                         : AVC
Format/Info                    : Advanced Video Codec
Format profile                 : [email protected]
Format settings                : CABAC / 5 Ref Frames
Format settings, CABAC         : Yes
Format settings, Reference fra : 5 frames
Codec ID                       : V_MPEG4/ISO/AVC
Duration                       : 1 h 37 min
Bit rate                       : 899 kb/s
Width                          : 1 280 pixels
Height                         : 534 pixels
Display aspect ratio           : 2.40:1
Frame rate mode                : Constant
Frame rate                     : 23.976 (24000/1001) FPS
Color space                    : YUV
Chroma subsampling             : 4:2:0
Bit depth                      : 8 bits
Scan type                      : Progressive
Bits/(Pixel*Frame)             : 0.055
Stream size                    : 629 MiB (82%)
Title                          : GOPI SAHI
Writing library                : x264 core 157 r2935 545de2f

Audio #1
ID                             : 2
Format                         : AAC LC
Format/Info                    : Advanced Audio Codec Low Complexity
Codec ID                       : A_AAC-2
Duration                       : 1 h 37 min
Bit rate                       : 96.0 kb/s
Channel(s)                     : 2 channels
Channel layout                 : L R
Sampling rate                  : 48.0 kHz
Frame rate                     : 46.875 FPS (1024 SPF)
Compression mode               : Lossy
Stream size                    : 67.4 MiB (9%)
Title                          : GOPI SAHI
Language                       : Hindi
Default                        : Yes
Forced                         : No

Audio #2
ID                             : 3
Format                         : AAC LC
Format/Info                    : Advanced Audio Codec Low Complexity
Codec ID                       : A_AAC-2
Duration                       : 1 h 37 min
Bit rate                       : 96.0 kb/s
Channel(s)                     : 2 channels
Channel layout                 : L R
Sampling rate                  : 48.0 kHz
Frame rate                     : 46.875 FPS (1024 SPF)
Compression mode               : Lossy
Delay relative to video        : 25 ms
Stream size                    : 67.6 MiB (9%)
Title                          : GOPI SAHI
Language                       : English
Default                        : No
Forced                         : No

Text
Language                       : English




MAGNET

TORRENT

TORRENT 2 480P AND 720P CHOOSE WHICH ONE DWONLOAD

GDRIVE FILE COPY

DWONLOAD AUTO START IN 20 SEC

DOWNLOAD AND ONLINE TERABOX LINK = PASSWORD = a6cu

DWONLOAD AUTO START IN 20 SEC ZIP FILE

560 MB 480P  HINDI DWONLOAD AUTO START IN 20 SEC


MULTIUP

MIRRORACE

MEDIAFIRE

ONLINE 720P

ONLINE 720P