Children Of Men 2006 x264 720p Esub BluRay Dual Audio English Hindi THE GOPI SAHI

Children of Men (2006)

 
 
In 2027, in a chaotic world in which women have become somehow infertile, a former activist agrees to help transport a miraculously pregnant woman to a sanctuary at sea.
EN
7.9/10
470,629
Directed byAlfonso Cuarón
Produced by
Screenplay by
Based onThe Children of Men
by P. D. James
Starring
Music byJohn Tavener
CinematographyEmmanuel Lubezki
Edited by
Production
companies
Distributed byUniversal Pictures
Release date
  • 3 September 2006 (Venice)
  • 22 September 2006 (United Kingdom)
  • 18 November 2006 (Japan)
  • 25 December 2006 (United States)
Running time
109 minutes[1]
Countries
  • United Kingdom
  • United States
  • Japan[2]
LanguagesEnglish
German
Italian
Romanian
Spanish
Arabic
Georgian
Russian
Serbian
Budget$76 million[3]
Box office$70 million[3]

 


Children Of Men 2006 x264 720p Esub BluRay Dual Audio English Hindi THE GOPI SAHI


Format                         : Matroska
Format version                 : Version 4
File size                      : 878 MiB
Duration                       : 1 h 49 min
Overall bit rate               : 1 124 kb/s
Movie name                     : Children of Men 2006 GOPISAHI
Encoded date                   : UTC 2020-02-23 00:04:53

Video
ID                             : 1
Format                         : AVC
Format/Info                    : Advanced Video Codec
Format profile                 : [email protected]
Format settings                : CABAC / 9 Ref Frames
Format settings, CABAC         : Yes
Format settings, Reference fra : 9 frames
Codec ID                       : V_MPEG4/ISO/AVC
Duration                       : 1 h 49 min
Bit rate                       : 899 kb/s
Width                          : 1 280 pixels
Height                         : 694 pixels
Display aspect ratio           : 1.85:1
Frame rate mode                : Constant
Frame rate                     : 23.976 (24000/1001) FPS
Color space                    : YUV
Chroma subsampling             : 4:2:0
Bit depth                      : 8 bits
Scan type                      : Progressive
Bits/(Pixel*Frame)             : 0.042
Stream size                    : 702 MiB (80%)
Title                          : GOPISAHI
Writing library                : x264 core 157 r2935 545de2f

Audio #1
ID                             : 2
Format                         : AAC LC
Format/Info                    : Advanced Audio Codec Low Complexity
Codec ID                       : A_AAC-2
Duration                       : 1 h 49 min
Bit rate                       : 96.0 kb/s
Channel(s)                     : 2 channels
Channel layout                 : L R
Sampling rate                  : 48.0 kHz
Frame rate                     : 46.875 FPS (1024 SPF)
Compression mode               : Lossy
Delay relative to video        : 1 s 9 ms
Stream size                    : 75.0 MiB (9%)
Title                          : GOPISAHI
Language                       : Hindi
Default                        : Yes
Forced                         : No

Audio #2
ID                             : 3
Format                         : AAC LC
Format/Info                    : Advanced Audio Codec Low Complexity
Codec ID                       : A_AAC-2
Duration                       : 1 h 49 min
Bit rate                       : 96.0 kb/s
Channel(s)                     : 2 channels
Channel layout                 : L R
Sampling rate                  : 48.0 kHz
Frame rate                     : 46.875 FPS (1024 SPF)
Compression mode               : Lossy
Delay relative to video        : -21 ms
Stream size                    : 75.1 MiB (9%)
Title                          : GOPISAHI
Language                       : English
Default                        : No
Forced                         : No

Text #1
ID                             : 4
Format                         : PGS
Muxing mode                    : zlib
Codec ID                       : S_HDMV/PGS
Codec ID/Info                  : Picture based subtitle format used on BDs/HD-DVDs
Duration                       : 1 h 39 min
Bit rate                       : 31.1 kb/s
Count of elements              : 2782
Stream size                    : 22.1 MiB (3%)
Title                          : GOPISAHI
Language                       : Hindi
Default                        : Yes
Forced                         : Yes

Text #2
ID                             : 5
Format                         : PGS
Muxing mode                    : zlib
Codec ID                       : S_HDMV/PGS
Codec ID/Info                  : Picture based subtitle format used on BDs/HD-DVDs
Duration                       : 1 h 39 min
Bit rate                       : 37.6 kb/s
Count of elements              : 2719
Stream size                    : 26.9 MiB (3%)
Title                          : GOPISAHI
Language                       : English
Default                        : No
Forced                         : No

Text #3
ID                             : 6
Format                         : PGS
Muxing mode                    : zlib
Codec ID                       : S_HDMV/PGS
Codec ID/Info                  : Picture based subtitle format used on BDs/HD-DVDs
Duration                       : 1 h 39 min
Bit rate                       : 20.6 kb/s
Count of elements              : 912
Stream size                    : 14.6 MiB (2%)
Title                          : GOPISAHI
Language                       : English
Default                        : No
Forced                         : No

Menu
00:00:00.000                   : en:Chapter 01
00:07:17.896                   : en:Chapter 02
00:11:02.662                   : en:Chapter 03
00:16:44.670                   : en:Chapter 04
00:21:07.975                   : en:Chapter 05
00:25:53.135                   : en:Chapter 06
00:30:20.986                   : en:Chapter 07
00:37:27.078                   : en:Chapter 08
00:42:37.889                   : en:Chapter 09
00:47:31.515                   : en:Chapter 10
00:55:28.408                   : en:Chapter 11
01:00:23.662                   : en:Chapter 12
01:07:08.441                   : en:Chapter 13
01:11:53.226                   : en:Chapter 14
01:16:26.707                   : en:Chapter 15
01:21:21.627                   : en:Chapter 16
01:23:50.609                   : en:Chapter 17
01:31:26.564                   : en:Chapter 18
01:34:48.600                   : en:Chapter 19
01:40:18.387                   : en:Chapter 20



 

MAGNET

TORRENT


TORRENT 2


GDRIVE FILE COPY

DWONLOAD AUTO START IN 20 SEC

DOWNLOAD AND ONLINE TERABOX LINK
= PASSWORD = gjmf

MULTIUP

MIRRORACE

MEDIAFIRE


ONLINE 720P

ONLINE 720P