Circle of Friends 1995 x264 720p Esub BluRay Dual Audio English Hindi THE GOPI SAHI

Circle of Friends (1995)

PG-13 | | Drama, Romance | 7 April 1995 (USA)
 
 
3 women, who've been friends since childhood, meet at university in Dublin in 1957. Student and boyfriend life begins.
EN

Director:

Pat O'Connor

Writers:

Andrew Davies (screenplay), Maeve Binchy (novel)
 
6.6/10
8,084

 

Directed byPat O'Connor
Written byAndrew Davies
Based onCircle of Friends by
Maeve Binchy
Starring
Music byMichael Kamen
CinematographyKenneth MacMillan
Edited byJohn Jympson
Distributed bySavoy Pictures
Cineplex Odeon Films (Canada)
Rank Organisation (UK)
Release date
17 March 1995
Running time
103 minutes
CountriesIreland
United Kingdom
United States
LanguageEnglish
Budget$15 million
Box office$45 million

 

Circle of Friends 1995 x264 720p Esub BluRay Dual Audio English Hindi THE GOPI SAHI

Format                         : Matroska
Format version                 : Version 4
File size                      : 814 MiB
Duration                       : 1 h 42 min
Overall bit rate               : 1 107 kb/s
Movie name                     : Circle of Friends 1995 GOPI SAHI
Encoded date                   : UTC 2021-05-12 05:20:58

Video
Format                         : AVC
Format/Info                    : Advanced Video Codec
Format profile                 : [email protected]
Format settings                : CABAC / 5 Ref Frames
Format settings, CABAC         : Yes
Format settings, Reference fra : 5 frames
Codec ID                       : V_MPEG4/ISO/AVC
Duration                       : 1 h 42 min
Bit rate                       : 899 kb/s
Width                          : 1 280 pixels
Height                         : 694 pixels
Display aspect ratio           : 1.85:1
Frame rate mode                : Constant
Frame rate                     : 23.976 (24000/1001) FPS
Color space                    : YUV
Chroma subsampling             : 4:2:0
Bit depth                      : 8 bits
Scan type                      : Progressive
Bits/(Pixel*Frame)             : 0.042
Stream size                    : 661 MiB (81%)
Title                          : GOPI SAHI
Writing library                : x264 core 157 r2935 545de2f

Audio #1
ID                             : 2
Format                         : AAC LC
Format/Info                    : Advanced Audio Codec Low Complexity
Codec ID                       : A_AAC-2
Duration                       : 1 h 42 min
Bit rate                       : 96.0 kb/s
Channel(s)                     : 2 channels
Channel layout                 : L R
Sampling rate                  : 48.0 kHz
Frame rate                     : 46.875 FPS (1024 SPF)
Compression mode               : Lossy
Delay relative to video        : -21 ms
Stream size                    : 70.8 MiB (9%)
Title                          : GOPI SAHI
Language                       : Hindi
Default                        : Yes
Forced                         : No

Audio #2
ID                             : 3
Format                         : AAC LC
Format/Info                    : Advanced Audio Codec Low Complexity
Codec ID                       : A_AAC-2
Duration                       : 1 h 42 min
Bit rate                       : 96.0 kb/s
Channel(s)                     : 2 channels
Channel layout                 : L R
Sampling rate                  : 48.0 kHz
Frame rate                     : 46.875 FPS (1024 SPF)
Compression mode               : Lossy
Delay relative to video        : -21 ms
Stream size                    : 70.9 MiB (9%)
Title                          : GOPI SAHI
Language                       : English
Default                        : No
Forced                         : No

Text
ID                             : 4
Format                         : PGS
Language                       : English

Menu
00:00:00.000                   : :Chapter 1
00:10:00.975                   : :Chapter 2
00:20:03.077                   : :Chapter 3
00:29:58.338                   : :Chapter 4
00:40:03.151                   : :Chapter 5
00:50:04.502                   : :Chapter 6
01:00:04.392                   : :Chapter 7
01:10:04.742                   : :Chapter 8
01:20:06.427                   : :Chapter 9
01:30:05.400                   : :Chapter 10
01:38:52.510                   : :Chapter 11





 MAGNET

TORRENT

TORRENT 2 ZIP FILE

GDRIVE FILE COPY


DWONLOAD AUTO START IN 20 SEC ZIP FILE


DOWNLOAD AND ONLINE DUBOX LINK
= PASSWORD = nsrn

MULTIUP

MIRRORACE

MEDIAFIRE


ONLINE 720P

ONLINE 720P


Post a Comment

1 Comments

  1. Please upload these movies also
    Disturbia (2007) in 720 blueray dual audio
    True lies (1994) in 720 blueray dual audio
    Push (2009) in 720 blueray dual audio
    Spirited away (2001) in 720 blueray dual audio (English and Hindi)

    ReplyDelete

No Except Any Movie Request Here,Try To Donate Money For Website Then Request, If You No Donate Way Post Request Here ,Nonprofit Services, No Ads, No Any Earning, If Download Link Not Work Post a Comment On Movie Page For Re-upload, Post a Comment On Any Movie Page If You Donate For This Website, Thanks Keep Support. Any Torrent-Magnet Not Reseed,Seed Only First 30 Days,Then Use Google Drive For Download.