Cobra 1986 x264 720p Esub BluRay Dual Audio English Hindi THE GOPI SAHI

Cobra (1986)

 
 
A tough-on-crime street cop must protect the only surviving witness to a strange murderous cult with far-reaching plans.
EN

Director:

George P. Cosmatos

Writers:

Paula Gosling (novel), Sylvester Stallone (screenplay)
 
5.8/10
68,473
Directed byGeorge P. Cosmatos
Produced byMenahem Golan
Yoram Globus
Screenplay bySylvester Stallone
Based onFair Game
by Paula Gosling
Starring
Music bySylvester Levay
CinematographyRic Waite
Edited byJames R. Symons
Don Zimmerman
Production
company
Distributed byWarner Bros.
Release date
May 23, 1986
Running time
89 minutes[1]
CountryUnited States
LanguageEnglish
Budget$25 million[2][3]
Box office$160 million[4]

 


\Cobra 1986 x264 720p BluRay Dual Audio English Hindi THE GOPI SAHI


Format                         : Matroska
Format version                 : Version 4
File size                      : 761 MiB
Duration                       : 1 h 27 min
Overall bit rate               : 1 222 kb/s
Movie name                     : Cobra 1986 GOPI SAHI
Encoded date                   : UTC 2021-05-16 23:36:43

Video
ID                             : 1
Format                         : AVC
Format/Info                    : Advanced Video Codec
Format profile                 : [email protected]
Format settings                : CABAC / 5 Ref Frames
Format settings, CABAC         : Yes
Format settings, Reference fra : 5 frames
Codec ID                       : V_MPEG4/ISO/AVC
Duration                       : 1 h 27 min
Bit rate                       : 899 kb/s
Width                          : 1 280 pixels
Height                         : 720 pixels
Display aspect ratio           : 16:9
Frame rate mode                : Constant
Frame rate                     : 23.976 (24000/1001) FPS
Color space                    : YUV
Chroma subsampling             : 4:2:0
Bit depth                      : 8 bits
Scan type                      : Progressive
Bits/(Pixel*Frame)             : 0.041
Stream size                    : 560 MiB (74%)
Title                          : GOPI SAHI
Writing library                : x264 core 157 r2935 545de2f

Audio #1
ID                             : 2
Format                         : AAC LC
Format/Info                    : Advanced Audio Codec Low Complexity
Codec ID                       : A_AAC-2
Duration                       : 1 h 27 min
Bit rate                       : 129 kb/s
Channel(s)                     : 2 channels
Channel layout                 : L R
Sampling rate                  : 44.1 kHz
Frame rate                     : 43.066 FPS (1024 SPF)
Compression mode               : Lossy
Delay relative to video        : -23 ms
Stream size                    : 80.1 MiB (11%)
Title                          : GOPI SAHI
Language                       : Hindi
Default                        : Yes
Forced                         : No

Audio #2
ID                             : 3
Format                         : AAC LC
Format/Info                    : Advanced Audio Codec Low Complexity
Codec ID                       : A_AAC-2
Duration                       : 1 h 27 min
Bit rate                       : 192 kb/s
Channel(s)                     : 6 channels
Channel layout                 : C L R Ls Rs LFE
Sampling rate                  : 48.0 kHz
Frame rate                     : 46.875 FPS (1024 SPF)
Compression mode               : Lossy
Delay relative to video        : -21 ms
Stream size                    : 120 MiB (16%)
Title                          : GOPI SAHI
Language                       : English
Default                        : No
Forced                         : No




MAGNET

TORRENT

TORRENT 2

GDRIVE FILE COPY

DWONLOAD AUTO START IN 20 SEC


DOWNLOAD AND ONLINE TERABOX LINK = PASSWORD = h9ve

MULTIUP

MIRRORACE

MEDIAFIRE

ONLINE 720P

ONLINE 720P