Cosmic Sins 2021 x264 720p Esub BluRay English Hindi Telugu Tamil Bihari Kannada THE GOPI SAHI

 

Cosmic Sin (2021)

R 03/12/2021 (US) Science FictionActionWar 1h 28m 

First contact has been made. It's war.

Overview

Bruce Willis and Frank Grillo star in the new epic sci-fi adventure set in the year 2524, four hundred years after humans started colonizing the outer planets. Retired Military General James Ford (Willis) is called back into service after soldiers on a remote planet are attacked by a hostile alien fleet. The threat against the human race escalates into an inevitable interstellar war. General Ford teams up with General Eron Ryle (Grillo) and a team of elite soldiers in a race to stop the imminent attack before it is too late.

Directed byEdward Drake
Produced byCorey Large
Written by
  • Edward Drake
  • Corey Large
Starring
Music byScott Glasgow
CinematographyBrandon Cox
Edited byJustin Williams
Production
companies
  • 308 Entertainment
  • BondIt Media Capital
Distributed bySaban Films[1]
Release date
  • March 12, 2021
Running time
88 minutes[2]
CountryUnited States
LanguageEnglish



 Cosmic Sins 2021 x264 720p Esub BluRay English Hindi Telugu Tamil Bihari Kannada THE GOPI SAHI


Format                         : Matroska
Format version                 : Version 4
File size                      : 894 MiB
Duration                       : 1 h 24 min
Overall bit rate               : 1 480 kb/s
Movie name                     : Cosmic Sins 2021 GOPI SAHI
Encoded date                   : UTC 2021-05-26 02:43:47

Video
ID                             : 1
Format                         : AVC
Format/Info                    : Advanced Video Codec
Format profile                 : [email protected]
Format settings                : CABAC / 5 Ref Frames
Format settings, CABAC         : Yes
Format settings, Reference fra : 5 frames
Codec ID                       : V_MPEG4/ISO/AVC
Duration                       : 1 h 24 min
Bit rate                       : 899 kb/s
Width                          : 1 280 pixels
Height                         : 538 pixels
Display aspect ratio           : 2.40:1
Frame rate mode                : Constant
Frame rate                     : 25.000 FPS
Color space                    : YUV
Chroma subsampling             : 4:2:0
Bit depth                      : 8 bits
Scan type                      : Progressive
Bits/(Pixel*Frame)             : 0.052
Stream size                    : 542 MiB (61%)
Title                          : GOPI SAHI
Writing library                : x264 core 157 r2935 545de2f

Audio #1
ID                             : 2
Format                         : AAC LC
Format/Info                    : Advanced Audio Codec Low Complexity
Codec ID                       : A_AAC-2
Duration                       : 1 h 24 min
Bit rate                       : 96.0 kb/s
Channel(s)                     : 2 channels
Channel layout                 : L R
Sampling rate                  : 44.1 kHz
Frame rate                     : 43.066 FPS (1024 SPF)
Compression mode               : Lossy
Delay relative to video        : 14 ms
Stream size                    : 57.9 MiB (6%)
Title                          : GOPI SAHI
Language                       : Hindi
Default                        : Yes
Forced                         : No

Audio #2
ID                             : 3
Format                         : AAC LC
Format/Info                    : Advanced Audio Codec Low Complexity
Codec ID                       : A_AAC-2
Duration                       : 1 h 24 min
Bit rate                       : 96.0 kb/s
Channel(s)                     : 2 channels
Channel layout                 : L R
Sampling rate                  : 44.1 kHz
Frame rate                     : 43.066 FPS (1024 SPF)
Compression mode               : Lossy
Delay relative to video        : 14 ms
Stream size                    : 58.0 MiB (6%)
Title                          : GOPI SAHI
Language                       : English
Default                        : No
Forced                         : No

Audio #3
ID                             : 4
Format                         : AAC LC
Format/Info                    : Advanced Audio Codec Low Complexity
Codec ID                       : A_AAC-2
Duration                       : 1 h 24 min
Bit rate                       : 96.0 kb/s
Channel(s)                     : 2 channels
Channel layout                 : L R
Sampling rate                  : 44.1 kHz
Frame rate                     : 43.066 FPS (1024 SPF)
Compression mode               : Lossy
Delay relative to video        : 14 ms
Stream size                    : 58.0 MiB (6%)
Title                          : GOPI SAHI
Language                       : Tamil
Default                        : No
Forced                         : No

Audio #4
ID                             : 5
Format                         : AAC LC
Format/Info                    : Advanced Audio Codec Low Complexity
Codec ID                       : A_AAC-2
Duration                       : 1 h 24 min
Bit rate                       : 96.0 kb/s
Channel(s)                     : 2 channels
Channel layout                 : L R
Sampling rate                  : 44.1 kHz
Frame rate                     : 43.066 FPS (1024 SPF)
Compression mode               : Lossy
Delay relative to video        : 14 ms
Stream size                    : 58.0 MiB (6%)
Title                          : GOPI SAHI
Language                       : Telugu
Default                        : No
Forced                         : No

Audio #5
ID                             : 6
Format                         : AAC LC
Format/Info                    : Advanced Audio Codec Low Complexity
Codec ID                       : A_AAC-2
Duration                       : 1 h 24 min
Bit rate                       : 96.0 kb/s
Channel(s)                     : 2 channels
Channel layout                 : L R
Sampling rate                  : 44.1 kHz
Frame rate                     : 43.066 FPS (1024 SPF)
Compression mode               : Lossy
Delay relative to video        : 14 ms
Stream size                    : 58.0 MiB (6%)
Title                          : GOPI SAHI
Language                       : Bihari
Default                        : No
Forced                         : No

Audio #6
ID                             : 7
Format                         : AAC LC
Format/Info                    : Advanced Audio Codec Low Complexity
Codec ID                       : A_AAC-2
Duration                       : 1 h 24 min
Bit rate                       : 96.0 kb/s
Channel(s)                     : 2 channels
Channel layout                 : L R
Sampling rate                  : 44.1 kHz
Frame rate                     : 43.066 FPS (1024 SPF)
Compression mode               : Lossy
Delay relative to video        : 14 ms
Stream size                    : 57.9 MiB (6%)
Title                          : GOPI SAHI
Language                       : Kannada
Default                        : No
Forced                         : No





MAGNET

TORRENT

TORRENT 2 480P AND 720P CHOOSE WHICH ONE DWONLOAD

GDRIVE FILE COPY

DWONLOAD AUTO START IN 20 SEC


DOWNLOAD AND ONLINE TERABOX LINK = PASSWORD = rwf2

DWONLOAD AUTO START IN 20 SEC ZIP FILE

 
478 MB HINDI 480P DWONLOAD AUTO START IN 20 SEC

MULTIUP

MIRRORACE


MEDIAFIRE

ONLINE 720P


ONLINE 720P