Den of Thieves 2018 UNRATED x264 720p Esub BluRay Dual Audio English Hindi THE GOPI SAHI

Den of Thieves (2018)

 
 
An elite unit of the LA County Sheriff's Dept. and the state's most successful bank robbery crew clash as the outlaws plan a seemingly impossible heist on the Federal Reserve Bank.
EN

Director:

Christian Gudegast

Writers:

Christian Gudegast (screenplay by), Christian Gudegast (story by) | 1 more credit »
 
7.0/10
96,916
Directed byChristian Gudegast
Produced by
Screenplay byChristian Gudegast
Story by
Starring
Music byCliff Martinez
CinematographyTerry Stacey
Edited by
Production
companies
Distributed bySTXfilms
Release date
  • January 19, 2018
Running time
140 minutes[1]
CountryUnited States
LanguageEnglish
Budget$30 million[2]
Box office$80.5 million[1]

 


 

Den of Thieves 2018 UNRATED x264 720p Esub BluRay Dual Audio English Hindi THE GOPI SAHI


Format                         : Matroska
Format version                 : Version 4
File size                      : 1.15 GiB
Duration                       : 2 h 28 min
Overall bit rate               : 1 106 kb/s
Movie name                     : Den of Thieves 2018 UNRATED GOPI SAHI
Encoded date                   : UTC 2021-05-16 03:18:05

Video
ID                             : 1
Format                         : AVC
Format/Info                    : Advanced Video Codec
Format profile                 : [email protected]
Format settings                : CABAC / 5 Ref Frames
Format settings, CABAC         : Yes
Format settings, Reference fra : 5 frames
Codec ID                       : V_MPEG4/ISO/AVC
Duration                       : 2 h 28 min
Bit rate                       : 899 kb/s
Width                          : 1 280 pixels
Height                         : 534 pixels
Display aspect ratio           : 2.40:1
Frame rate mode                : Constant
Frame rate                     : 23.976 (24000/1001) FPS
Color space                    : YUV
Chroma subsampling             : 4:2:0
Bit depth                      : 8 bits
Scan type                      : Progressive
Bits/(Pixel*Frame)             : 0.055
Stream size                    : 955 MiB (81%)
Title                          : GOPI SAHI
Writing library                : x264 core 157 r2935 545de2f


Audio #1
ID                             : 2
Format                         : AAC LC
Format/Info                    : Advanced Audio Codec Low Complexity
Codec ID                       : A_AAC-2
Duration                       : 2 h 28 min
Bit rate                       : 96.0 kb/s
Channel(s)                     : 2 channels
Channel layout                 : L R
Sampling rate                  : 48.0 kHz
Frame rate                     : 46.875 FPS (1024 SPF)
Compression mode               : Lossy
Delay relative to video        : -21 ms
Stream size                    : 103 MiB (9%)
Title                          : GOPI SAHI
Language                       : Hindi
Default                        : Yes
Forced                         : No

Audio #2
ID                             : 3
Format                         : AAC LC
Format/Info                    : Advanced Audio Codec Low Complexity
Codec ID                       : A_AAC-2
Duration                       : 2 h 28 min
Bit rate                       : 96.0 kb/s
Channel(s)                     : 2 channels
Channel layout                 : L R
Sampling rate                  : 48.0 kHz
Frame rate                     : 46.875 FPS (1024 SPF)
Compression mode               : Lossy
Delay relative to video        : -21 ms
Stream size                    : 102 MiB (9%)
Title                          : GOPI SAHI
Language                       : English
Default                        : No
Forced                         : No

Text
ID                             : 4
Format                         : PGS
Muxing mode                    : zlib
Codec ID                       : S_HDMV/PGS
Codec ID/Info                  : Picture based subtitle format used on BDs/HD-DVDs
Duration                       : 2 h 19 min
Bit rate                       : 24.7 kb/s
Count of elements              : 3086
Stream size                    : 24.7 MiB (2%)
Title                          : GOPI SAHI
Language                       : English
Default                        : Yes
Forced                         : No

Menu
00:00:00.000                   : :Chapter 1
00:09:38.870                   : :Chapter 2
00:17:31.968                   : :Chapter 3
00:24:03.734                   : :Chapter 4
00:30:30.412                   : :Chapter 5
00:43:48.084                   : :Chapter 6
00:49:54.992                   : :Chapter 7
00:51:52.568                   : :Chapter 8
00:58:58.326                   : :Chapter 9
01:05:05.151                   : :Chapter 10
01:10:42.822                   : :Chapter 11
01:16:21.035                   : :Chapter 12
01:25:11.523                   : :Chapter 13
01:29:54.556                   : :Chapter 14
01:35:50.912                   : :Chapter 15
01:40:39.951                   : :Chapter 16
01:47:04.251                   : :Chapter 17
01:50:22.574                   : :Chapter 18
01:58:30.770                   : :Chapter 19
02:04:59.951                   : :Chapter 20
02:14:28.143                   : :Chapter 21
02:22:15.360                   : :Chapter 22




 

Post a Comment

1 Comments

  1. Upload these movies also
    Hansel and Gretel:Witch Hunters (2013) in 720 blueray dual audio
    Cobra (1986) in 720 blueray dual audio
    Tango and Cash (1989) in 720 blueray dual audio

    ReplyDelete

No Except Any Movie Request Here,Try To Donate Money For Website Then Request, If You No Donate Way Post Request Here ,Nonprofit Services, No Ads, No Any Earning, If Download Link Not Work Post a Comment On Movie Page For Re-upload, Post a Comment On Any Movie Page If You Donate For This Website, Thanks Keep Support. Any Torrent-Magnet Not Reseed,Seed Only First 30 Days,Then Use Google Drive For Download.