Disturbia 2007 x264 720p Esub BluRay Dual Audio English Hindi THE GOPI SAHI

Disturbia (2007)

PG-13 | | Crime, Drama, Mystery | 13 April 2007 (USA)
 
 
A teen living under house arrest becomes convinced his neighbor is a serial killer.
EN

Director:

D.J. Caruso

Writers:

Christopher Landon (screenplay), Carl Ellsworth (screenplay) | 1 more credit »
 
6.8/10
223,544

 

Directed byD. J. Caruso
Produced by
Screenplay by
Story byChristopher Landon
Starring
Music byGeoff Zanelli
CinematographyRogier Stoffers
Edited byJim Page
Production
companies
Distributed byParamount Pictures
Release date
  • April 4, 2007 (Hollywood)
  • April 13, 2007 (United States)
Running time
105 minutes
CountryUnited States
LanguageEnglish
Budget$20 million[2]
Box office$118.1 million[2]

 

Disturbia 2007 x264 720p Esub BluRay Dual Audio English Hindi THE GOPI SAHI


Format                         : Matroska
Format version                 : Version 4
File size                      : 979 MiB
Duration                       : 1 h 45 min
Overall bit rate               : 1 301 kb/s
Movie name                     : Disturbia 2007 GOPISAHI
Encoded date                   : UTC 2019-09-02 07:02:26

Video
ID                             : 1
Format                         : AVC
Format/Info                    : Advanced Video Codec
Format profile                 : [email protected]
Format settings                : CABAC / 9 Ref Frames
Format settings, CABAC         : Yes
Format settings, Reference fra : 9 frames
Codec ID                       : V_MPEG4/ISO/AVC
Duration                       : 1 h 44 min
Bit rate                       : 899 kb/s
Width                          : 1 280 pixels
Height                         : 720 pixels
Display aspect ratio           : 16:9
Frame rate mode                : Constant
Frame rate                     : 23.976 (24000/1001) FPS
Color space                    : YUV
Chroma subsampling             : 4:2:0
Bit depth                      : 8 bits
Scan type                      : Progressive
Bits/(Pixel*Frame)             : 0.041
Stream size                    : 672 MiB (69%)
Title                          : GOPISAHI
Writing library                : x264 core 157 r2935 545de2f

Audio #1
ID                             : 2
Format                         : AAC LC
Format/Info                    : Advanced Audio Codec Low Complexity
Codec ID                       : A_AAC-2
Duration                       : 1 h 45 min
Bit rate                       : 192 kb/s
Channel(s)                     : 6 channels
Channel layout                 : C L R Ls Rs LFE
Sampling rate                  : 48.0 kHz
Frame rate                     : 46.875 FPS (1024 SPF)
Compression mode               : Lossy
Delay relative to video        : 1 s 479 ms
Stream size                    : 144 MiB (15%)
Title                          : GOPISAHI
Language                       : Hindi
Default                        : Yes
Forced                         : No

Audio #2
ID                             : 3
Format                         : AAC LC
Format/Info                    : Advanced Audio Codec Low Complexity
Codec ID                       : A_AAC-2
Duration                       : 1 h 44 min
Bit rate                       : 192 kb/s
Channel(s)                     : 6 channels
Channel layout                 : C L R Ls Rs LFE
Sampling rate                  : 48.0 kHz
Frame rate                     : 46.875 FPS (1024 SPF)
Compression mode               : Lossy
Delay relative to video        : -21 ms
Stream size                    : 144 MiB (15%)
Title                          : GOPISAHI
Language                       : English
Default                        : No
Forced                         : No

Text
Language                       : English




MAGNET

TORRENT

TORRENT 2

 
GDRIVE FILE COPY

DWONLOAD AUTO START IN 20 SEC 

 ZIP FILE - PASSWORD - edfw

MULTIUP

MIRRORACE

MEDIAFIRE

ONLINE 720P

ONLINE 720P