Dog Gone Trouble 2021 x264 1080p WebHD Esub English Hindi THE GOPI SAHI

 

Directed by
Produced by
Written by
  • Reid Carolin
  • Brett Rodriguez
Starring
Music byThomas Newman
CinematographyNewton Thomas Sigel
Edited byLeslie Jones
Production
companies
Distributed byUnited Artists Releasing
Release date
  • July 16, 2021 (United States)
CountryUnited States
LanguageEnglish

 

 


Dog Gone Trouble 2021 x264 1080p WebHD Esub English Hindi THE GOPI SAHI


Format                         : Matroska
Format version                 : Version 4
File size                      : 1.85 GiB
Duration                       : 1 h 28 min
Overall bit rate mode          : Variable
Overall bit rate               : 3 006 kb/s
Movie name                     : Dog Gone Trouble 2021 GOPI SAHI
Encoded date                   : UTC 2021-05-28 20:53:11

Video
ID                             : 1
Format                         : AVC
Format/Info                    : Advanced Video Codec
Format profile                 : [email protected]
Format settings                : CABAC / 4 Ref Frames
Format settings, CABAC         : Yes
Format settings, Reference fra : 4 frames
Codec ID                       : V_MPEG4/ISO/AVC
Duration                       : 1 h 28 min
Bit rate mode                  : Variable
Bit rate                       : 1 725 kb/s
Maximum bit rate               : 20.0 Mb/s
Width                          : 1 920 pixels
Height                         : 1 080 pixels
Display aspect ratio           : 16:9
Frame rate mode                : Constant
Frame rate                     : 24.000 FPS
Color space                    : YUV
Chroma subsampling             : 4:2:0
Bit depth                      : 8 bits
Scan type                      : Progressive
Bits/(Pixel*Frame)             : 0.035
Stream size                    : 1.06 GiB (57%)
Title                          : GOPI SAHI
Writing library                : x264 core 148 r2722 1b0121b

Audio #1
ID                             : 2
Format                         : E-AC-3
Format/Info                    : Enhanced AC-3
Commercial name                : Dolby Digital Plus
Codec ID                       : A_EAC3
Duration                       : 1 h 28 min
Bit rate mode                  : Constant
Bit rate                       : 640 kb/s
Channel(s)                     : 6 channels
Channel layout                 : L R C LFE Ls Rs
Sampling rate                  : 48.0 kHz
Frame rate                     : 31.250 FPS (1536 SPF)
Compression mode               : Lossy
Delay relative to video        : -83 ms
Stream size                    : 403 MiB (21%)
Title                          : GOPI SAHI
Language                       : Hindi
Service kind                   : Complete Main
Default                        : Yes
Forced                         : No

Audio #2
ID                             : 3
Format                         : E-AC-3
Format/Info                    : Enhanced AC-3
Commercial name                : Dolby Digital Plus
Codec ID                       : A_EAC3
Duration                       : 1 h 28 min
Bit rate mode                  : Constant
Bit rate                       : 640 kb/s
Channel(s)                     : 6 channels
Channel layout                 : L R C LFE Ls Rs
Sampling rate                  : 48.0 kHz
Frame rate                     : 31.250 FPS (1536 SPF)
Compression mode               : Lossy
Delay relative to video        : -83 ms
Stream size                    : 403 MiB (21%)
Title                          : GOPI SAHI
Language                       : English
Service kind                   : Complete Main
Default                        : No
Forced                         : No

Text
ID                             : 4
Format                         : UTF-8
Codec ID                       : S_TEXT/UTF8
Codec ID/Info                  : UTF-8 Plain Text
Duration                       : 1 h 25 min
Bit rate                       : 85 b/s
Count of elements              : 1839
Stream size                    : 53.5 KiB (0%)
Title                          : GOPI SAHI
Language                       : Hindi
Default                        : Yes
Forced                         : No





MAGNET

TORRENT

TORRENT 2 480P AND 720P CHOOSE WHICH ONE DWONLOAD

GDRIVE FILE COPY


DWONLOAD AUTO START IN 20 SEC

DOWNLOAD AND ONLINE TERABOX LINK = PASSWORD = qt58

DWONLOAD AUTO START IN 20 SEC ZIP FILE

MULTIUP

MIRRORACE

MEDIAFIRE

ONLINE 720P

ONLINE 720P