Dog Gone Trouble 2021 x264 720p WebHD Esub Dual Audio English Hindi THE GOPI SAHI

Directed by
Produced by
Written by
  • Reid Carolin
  • Brett Rodriguez
Starring
Music byThomas Newman
CinematographyNewton Thomas Sigel
Edited byLeslie Jones
Production
companies
Distributed byUnited Artists Releasing
Release date
  • July 16, 2021 (United States)
CountryUnited States
LanguageEnglish

 

 

Dog Gone Trouble 2021 x264 720p WebHD Esub Dual Audio English Hindi THE GOPI SAHI

Format : Matroska
Format version : Version 4
File size : 809 MiB
Duration : 1 h 28 min
Overall bit rate : 1 283 kb/s
Movie name : Dog Gone Trouble 2021 GOPI SAHI
Encoded date : UTC 2021-05-29 00:53:37

Video
ID : 1
Format : AVC
Format/Info : Advanced Video Codec
Format profile : [email protected]
Format settings : CABAC / 5 Ref Frames
Format settings, CABAC : Yes
Format settings, Reference fra : 5 frames
Codec ID : V_MPEG4/ISO/AVC
Duration : 1 h 28 min
Bit rate : 899 kb/s
Width : 1 280 pixels
Height : 690 pixels
Display aspect ratio : 1.85:1
Frame rate mode : Constant
Frame rate : 24.000 FPS
Color space : YUV
Chroma subsampling : 4:2:0
Bit depth : 8 bits
Scan type : Progressive
Bits/(Pixel*Frame) : 0.042
Stream size : 566 MiB (70%)
Title : GOPI SAHI
Writing library : x264 core 157 r2935 545de2f

Audio #1
ID : 2
Format : AAC LC
Format/Info : Advanced Audio Codec Low Complexity
Codec ID : A_AAC-2
Duration : 1 h 28 min
Bit rate : 192 kb/s
Channel(s) : 6 channels
Channel layout : C L R Ls Rs LFE
Sampling rate : 48.0 kHz
Frame rate : 46.875 FPS (1024 SPF)
Compression mode : Lossy
Delay relative to video : -104 ms
Stream size : 120 MiB (15%)
Title : GOPI SAHI
Language : Hindi
Default : Yes
Forced : No

Audio #2
ID : 3
Format : AAC LC
Format/Info : Advanced Audio Codec Low Complexity
Codec ID : A_AAC-2
Duration : 1 h 28 min
Bit rate : 192 kb/s
Channel(s) : 6 channels
Channel layout : C L R Ls Rs LFE
Sampling rate : 48.0 kHz
Frame rate : 46.875 FPS (1024 SPF)
Compression mode : Lossy
Delay relative to video : -104 ms
Stream size : 120 MiB (15%)
Title : GOPI SAHI
Language : English
Default : No
Forced : No

Text
ID : 4
Format : UTF-8
Codec ID : S_TEXT/UTF8
Codec ID/Info : UTF-8 Plain Text
Duration : 1 h 25 min
Bit rate : 85 b/s
Count of elements : 1839
Stream size : 53.5 KiB (0%)
Title : GOPI SAHI
Language : English
Default : Yes
Forced : No
 




 MAGNET

TORRENT

TORRENT 2 480P AND 720P CHOOSE WHICH ONE DWONLOAD

GDRIVE FILE COPY

DWONLOAD AUTO START IN 20 SEC

DOWNLOAD AND ONLINE TERABOX LINK = PASSWORD = 5eub

DWONLOAD AUTO START IN 20 SEC ZIP FILE

MB HINDI 480P DWONLOAD AUTO START IN 20 SEC

MULTIUP

MIRRORACE

MEDIAFIRE

ONLINE 720P

ONLINE 720P