Don't Be Afraid of the Dark 2010 x264 720p Esub BluRay Dual Audio English Hindi THE GOPI SAHI

 

Don't Be Afraid of the Dark (2010)

 
 
A young girl sent to live with her father and his new girlfriend believes that she has released creatures from a sealed ash pit in the basement of her new home.
EN

Director:

Troy Nixey

Writers:

Guillermo del Toro (screenplay), Matthew Robbins (screenplay) | 1 more credit »
 
5.6/10
47,229
Directed byTroy Nixey
Produced byGuillermo del Toro
Mark Johnson
Stephen Jones
Written byGuillermo del Toro
Matthew Robbins
Based on
Starring
Music byMarco Beltrami
Buck Sanders
CinematographyOliver Stapleton
Edited byJill Bilcock
Production
companies
Necropia
Gran Via
Distributed byFilmDistrict
Miramax (United States)
Hopscotch Films (Australia)[1]
Release date
  • November 6, 2010 (Virginia Film Festival)
  • August 26, 2011 (United States)
Running time
99 minutes
CountriesUnited States
Australia
Mexico
LanguageEnglish
Budget$25 million[2][1]
Box office$38.3 million[1]

 

 

Don't Be Afraid of the Dark 2010 x264 720p Esub BluRay Dual Audio English Hindi THE GOPI SAHI


Format                         : Matroska
Format version                 : Version 4
File size                      : 779 MiB
Duration                       : 1 h 39 min
Overall bit rate               : 1 100 kb/s
Movie name                     : Don't Be Afraid of the Dark 2010 GOPI SAHI
Encoded date                   : UTC 2021-05-09 01:23:51

Video
ID                             : 1
Format                         : AVC
Format/Info                    : Advanced Video Codec
Format profile                 : [email protected]
Format settings                : CABAC / 5 Ref Frames
Format settings, CABAC         : Yes
Format settings, Reference fra : 5 frames
Codec ID                       : V_MPEG4/ISO/AVC
Duration                       : 1 h 39 min
Bit rate                       : 899 kb/s
Width                          : 1 280 pixels
Height                         : 718 pixels
Display aspect ratio           : 16:9
Frame rate mode                : Constant
Frame rate                     : 24.000 FPS
Color space                    : YUV
Chroma subsampling             : 4:2:0
Bit depth                      : 8 bits
Scan type                      : Progressive
Bits/(Pixel*Frame)             : 0.041
Stream size                    : 636 MiB (82%)
Title                          : GOPI SAHI
Writing library                : x264 core 157 r2935 545de2f


Audio #1
ID                             : 2
Format                         : AAC LC
Format/Info                    : Advanced Audio Codec Low Complexity
Codec ID                       : A_AAC-2
Duration                       : 1 h 38 min
Bit rate                       : 96.0 kb/s
Channel(s)                     : 2 channels
Channel layout                 : L R
Sampling rate                  : 48.0 kHz
Frame rate                     : 46.875 FPS (1024 SPF)
Compression mode               : Lossy
Delay relative to video        : -8 ms
Stream size                    : 68.1 MiB (9%)
Title                          : GOPI SAHI
Language                       : Hindi
Default                        : Yes
Forced                         : No

Audio #2
ID                             : 3
Format                         : AAC LC
Format/Info                    : Advanced Audio Codec Low Complexity
Codec ID                       : A_AAC-2
Duration                       : 1 h 38 min
Bit rate                       : 96.0 kb/s
Channel(s)                     : 2 channels
Channel layout                 : L R
Sampling rate                  : 48.0 kHz
Frame rate                     : 46.875 FPS (1024 SPF)
Compression mode               : Lossy
Delay relative to video        : -21 ms
Stream size                    : 68.2 MiB (9%)
Title                          : GOPI SAHI
Language                       : English
Default                        : No
Forced                         : No

Text
ID                             : 4
Format                         : PGS
Muxing mode                    : zlib
Codec ID                       : S_HDMV/PGS
Codec ID/Info                  : Picture based subtitle format used on BDs/HD-DVDs
Duration                       : 1 h 33 min
Bit rate                       : 22.8 kb/s
Count of elements              : 1578
Stream size                    : 15.3 MiB (2%)
Title                          : GOPI SAHI
Language                       : English
Default                        : No
Forced                         : No

Menu
00:00:00.000                   : :Chapter 1
00:07:18.833                   : :Chapter 2
00:11:15.708                   : :Chapter 3
00:18:02.208                   : :Chapter 4
00:23:02.125                   : :Chapter 5
00:31:47.167                   : :Chapter 6
00:38:35.792                   : :Chapter 7
00:43:20.042                   : :Chapter 8
00:49:04.167                   : :Chapter 9
00:55:09.375                   : :Chapter 10
01:01:06.875                   : :Chapter 11
01:07:14.875                   : :Chapter 12
01:13:27.208                   : :Chapter 13
01:19:28.208                   : :Chapter 14
01:24:44.333                   : :Chapter 15
01:35:32.792                   : :Chapter 16





MAGNET

TORRENT

TORRENT 2 ZIP FILE

GDRIVE FILE COPY

DWONLOAD AUTO START IN 20 SEC ZIP FILE

DOWNLOAD AND ONLINE DUBOX LINK = PASSWORD = uu56

MULTIUP

MIRRORACE


MEDIAFIRE

ONLINE 720P

ONLINE 720P

 

Post a Comment

0 Comments