Dracula 1979 CE x264 720p Esub BluRay Dual Audio English Hindi THE GOPI SAHI

Dracula (1979)

 
 

 

In 1913, the charming, seductive and sinister vampire Count Dracula travels to England in search of an immortal bride.

Director:

John Badham

Writers:

W.D. Richter (screenplay), Hamilton Deane (play) | 2 more credits »
 
6.5/10
 

9,216

 

Directed byJohn Badham
Produced byMarvin Mirisch
Walter Mirisch
Screenplay byW. D. Richter
Based on
StarringFrank Langella
Laurence Olivier
Donald Pleasence
Kate Nelligan
Music byJohn Williams
CinematographyGilbert Taylor
Edited byJohn Bloom
Production
company
Distributed byUniversal Pictures
Release date
  • July 13, 1979
Running time
109 minutes
CountriesUnited States
United Kingdom
LanguageEnglish
Budget$12.2 million
Box office$31.2 million

 


Dracula 1979 CE x264 720p Esub BluRay Dual Audio English Hindi THE GOPI SAHI


Format                         : Matroska
Format version                 : Version 4
File size                      : 872 MiB
Duration                       : 1 h 49 min
Overall bit rate               : 1 114 kb/s
Movie name                     : Dracula 1979 CE GOPI SAHI
Encoded date                   : UTC 2021-05-02 16:41:02

Video
ID                             : 1
Format                         : AVC
Format/Info                    : Advanced Video Codec
Format profile                 : [email protected]
Format settings                : CABAC / 5 Ref Frames
Format settings, CABAC         : Yes
Format settings, Reference fra : 5 frames
Codec ID                       : V_MPEG4/ISO/AVC
Duration                       : 1 h 49 min
Bit rate                       : 899 kb/s
Width                          : 1 280 pixels
Height                         : 534 pixels
Display aspect ratio           : 2.40:1
Frame rate mode                : Constant
Frame rate                     : 23.976 (24000/1001) FPS
Color space                    : YUV
Chroma subsampling             : 4:2:0
Bit depth                      : 8 bits
Scan type                      : Progressive
Bits/(Pixel*Frame)             : 0.055
Stream size                    : 703 MiB (81%)
Title                          : GOPI SAHI
Writing library                : x264 core 157 r2935 545de2f

Audio #1
ID                             : 2
Format                         : AAC LC
Format/Info                    : Advanced Audio Codec Low Complexity
Codec ID                       : A_AAC-2
Duration                       : 1 h 49 min
Bit rate                       : 96.0 kb/s
Channel(s)                     : 2 channels
Channel layout                 : L R
Sampling rate                  : 48.0 kHz
Frame rate                     : 46.875 FPS (1024 SPF)
Compression mode               : Lossy
Delay relative to video        : -21 ms
Stream size                    : 75.0 MiB (9%)
Title                          : GOPI SAHI
Language                       : Hindi
Default                        : Yes
Forced                         : No

Audio #2
ID                             : 3
Format                         : AAC LC
Format/Info                    : Advanced Audio Codec Low Complexity
Codec ID                       : A_AAC-2
Duration                       : 1 h 49 min
Bit rate                       : 96.0 kb/s
Channel(s)                     : 2 channels
Channel layout                 : L R
Sampling rate                  : 48.0 kHz
Frame rate                     : 46.875 FPS (1024 SPF)
Compression mode               : Lossy
Delay relative to video        : -21 ms
Stream size                    : 75.2 MiB (9%)
Title                          : GOPI SAHI
Language                       : English
Default                        : No
Forced                         : No

Text
ID                             : 4
Format                         : PGS
Muxing mode                    : zlib
Codec ID                       : S_HDMV/PGS
Codec ID/Info                  : Picture based subtitle format used on BDs/HD-DVDs
Duration                       : 1 h 46 min
Bit rate                       : 34.8 kb/s
Count of elements              : 2317
Stream size                    : 26.4 MiB (3%)
Title                          : GOPI SAHI
Language                       : English
Default                        : No
Forced                         : No

Menu
00:00:00.000                   : :Chapter 1
00:10:06.064                   : :Chapter 2
00:24:10.032                   : :Chapter 3
00:32:35.328                   : :Chapter 4
00:41:16.516                   : :Chapter 5
00:50:16.096                   : :Chapter 6
00:59:27.856                   : :Chapter 7
01:08:06.624                   : :Chapter 8
01:16:39.095                   : :Chapter 9
01:25:07.603                   : :Chapter 10
01:35:06.284                   : :Chapter 11
01:40:33.402                   : :Chapter 12




 

Post a comment

0 Comments