Dracula II- Ascension 2003 x264 720p Esub BluRay Dual Audio English Hindi THE GOPI SAHI

 

Dracula II: Ascension (2003)

R | | Horror | Video 7 June 2003
 
 
A group of medical students discover the body of the infamous count. Soon, they find themselves in the middle of a bizarre and dangerous conflict when a shadowy figure offers them $30 million for the body so that he may harvest his blood.
EN

Director:

Patrick Lussier
 
4.7/10
3,933
Directed byPatrick Lussier
Produced byW.K. Border
Joel Soisson
Written byJoel Soisson
Patrick Lussier
StarringJason Scott Lee
Jason London
Craig Sheffer
Stephen Billington
Diane Neal
John Light
Brande Roderick
Khary Payton
Roy Scheider
Music byKevin Kliesch
Marco Beltrami (themes)
CinematographyDouglas Milsome
Edited byLisa Romaniw
Distributed byDimension Films
Release date
  • June 7, 2003
Running time
81 minutes
CountriesUnited States
Romania
LanguageEnglish
Budget$3,200,000 (estimated)

 


Dracula II- Ascension 2003 x264 720p Esub BluRay Dual Audio English Hindi THE GOPI SAHI


Format                         : Matroska
Format version                 : Version 4
File size                      : 669 MiB
Duration                       : 1 h 25 min
Overall bit rate               : 1 100 kb/s
Movie name                     : Dracula II: Ascension 2003 GOPI SAHI
Encoded date                   : UTC 2021-05-04 14:20:54

Video
ID                             : 1
Format                         : AVC
Format/Info                    : Advanced Video Codec
Format profile                 : [email protected]
Format settings                : CABAC / 5 Ref Frames
Format settings, CABAC         : Yes
Format settings, Reference fra : 5 frames
Codec ID                       : V_MPEG4/ISO/AVC
Duration                       : 1 h 24 min
Bit rate                       : 899 kb/s
Width                          : 1 280 pixels
Height                         : 720 pixels
Display aspect ratio           : 16:9
Frame rate mode                : Constant
Frame rate                     : 23.976 (24000/1001) FPS
Color space                    : YUV
Chroma subsampling             : 4:2:0
Bit depth                      : 8 bits
Scan type                      : Progressive
Bits/(Pixel*Frame)             : 0.041
Stream size                    : 546 MiB (82%)
Title                          : GOPI SAHI
Writing library                : x264 core 157 r2935 545de2f

Audio #1
ID                             : 2
Format                         : AAC LC
Format/Info                    : Advanced Audio Codec Low Complexity
Codec ID                       : A_AAC-2
Duration                       : 1 h 25 min
Bit rate                       : 96.0 kb/s
Channel(s)                     : 2 channels
Channel layout                 : L R
Sampling rate                  : 48.0 kHz
Frame rate                     : 46.875 FPS (1024 SPF)
Compression mode               : Lossy
Delay relative to video        : 8 ms
Stream size                    : 58.5 MiB (9%)
Title                          : GOPI SAHI
Language                       : Hindi
Default                        : Yes
Forced                         : No

Audio #2
ID                             : 3
Format                         : AAC LC
Format/Info                    : Advanced Audio Codec Low Complexity
Codec ID                       : A_AAC-2
Duration                       : 1 h 24 min
Bit rate                       : 96.0 kb/s
Channel(s)                     : 2 channels
Channel layout                 : L R
Sampling rate                  : 48.0 kHz
Frame rate                     : 46.875 FPS (1024 SPF)
Compression mode               : Lossy
Delay relative to video        : -21 ms
Stream size                    : 58.5 MiB (9%)
Title                          : GOPI SAHI
Language                       : English
Default                        : No
Forced                         : No

Text
ID                             : 4
Format                         : PGS
Muxing mode                    : zlib
Codec ID                       : S_HDMV/PGS
Codec ID/Info                  : Picture based subtitle format used on BDs/HD-DVDs
Duration                       : 1 h 19 min
Bit rate                       : 23.3 kb/s
Count of elements              : 2034
Stream size                    : 13.2 MiB (2%)
Title                          : GOPI SAHI
Language                       : English
Default                        : Yes
Forced                         : No

Menu
00:00:00.000                   : :Chapter 1
00:06:21.548                   : :Chapter 2
00:12:00.595                   : :Chapter 3
00:17:20.831                   : :Chapter 4
00:21:56.649                   : :Chapter 5
00:27:00.536                   : :Chapter 6
00:32:33.952                   : :Chapter 7
00:41:29.070                   : :Chapter 8
00:46:21.779                   : :Chapter 9
00:50:55.052                   : :Chapter 10
00:54:35.439                   : :Chapter 11
00:59:59.262                   : :Chapter 12
01:04:20.482                   : :Chapter 13
01:09:38.466                   : :Chapter 14
01:15:40.244                   : :Chapter 15




 MAGNET

TORRENT

TORRENT 2 ZIP FILE

GDRIVE FILE COPY

DWONLOAD AUTO START IN 20 SEC ZIP FILE


DOWNLOAD AND ONLINE DUBOX LINK = PASSWORD = 38cv

MULTIUP

MIRRORACE

MEDIAFIRE

ONLINE 720P

 

ONLINE 720P