Dracula III- Legacy 2005 x264 720p Esub BluRay Dual Audio English Hindi THE GOPI SAHI

Dracula III: Legacy (2005)

R | | Horror | Video 12 July 2005
 
 
In the near future, Uffizi and Luke travel to the remote reaches of war torn Romania to rescue Elizabeth and finish the vampire once and for all. Along the way, they encounter TV news journalist and a corps of rebels trying to fight the vampire uprising which plagues their country.
EN

Director:

Patrick Lussier

 

4.6/10
2,702
Directed byPatrick Lussier
Produced byW.K. Border
Joel Soisson
Written byJoel Soisson
Patrick Lussier
StarringJason Scott Lee
Jason London
Alexandra Wescourt
Diane Neal
Roy Scheider
Rutger Hauer
Music byKevin Kliesch
Ceiri Torjussen
Marco Beltrami (themes)
CinematographyDouglas Milsome
Edited byLisa Romaniw
Distributed byDimension Films
Release date
  • July 12, 2005
Running time
90 minutes
CountriesUnited States
Romania
LanguagesEnglish
Romanian
French



Dracula III- Legacy 2005 x264 720p Esub BluRay Dual Audio English Hindi THE GOPI SAHI


Format                         : Matroska
Format version                 : Version 4
File size                      : 714 MiB
Duration                       : 1 h 30 min
Overall bit rate               : 1 100 kb/s
Movie name                     : Dracula III: Legacy 2005 GOPI SAHI
Encoded date                   : UTC 2021-05-04 14:21:44
Writing application            : mkvmerge v52.0.0 ('Secret For The Mad') 64-bit
Writing library                : libebml v1.4.1 + libmatroska v1.6.2

Video
ID                             : 1
Format                         : AVC
Format/Info                    : Advanced Video Codec
Format profile                 : [email protected]
Format settings                : CABAC / 5 Ref Frames
Format settings, CABAC         : Yes
Format settings, Reference fra : 5 frames
Codec ID                       : V_MPEG4/ISO/AVC
Duration                       : 1 h 30 min
Bit rate                       : 899 kb/s
Width                          : 1 280 pixels
Height                         : 750 pixels
Display aspect ratio           : 1.707
Frame rate mode                : Constant
Frame rate                     : 23.976 (24000/1001) FPS
Color space                    : YUV
Chroma subsampling             : 4:2:0
Bit depth                      : 8 bits
Scan type                      : Progressive
Bits/(Pixel*Frame)             : 0.039
Stream size                    : 583 MiB (82%)
Title                          : GOPI SAHI
Writing library                : x264 core 157 r2935 545de2f

Audio #1
ID                             : 2
Format                         : AAC LC
Format/Info                    : Advanced Audio Codec Low Complexity
Codec ID                       : A_AAC-2
Duration                       : 1 h 30 min
Bit rate                       : 96.0 kb/s
Channel(s)                     : 2 channels
Channel layout                 : L R
Sampling rate                  : 48.0 kHz
Frame rate                     : 46.875 FPS (1024 SPF)
Compression mode               : Lossy
Delay relative to video        : -21 ms
Stream size                    : 62.4 MiB (9%)
Title                          : GOPI SAHI
Language                       : Hindi
Default                        : Yes
Forced                         : No

Audio #2
ID                             : 3
Format                         : AAC LC
Format/Info                    : Advanced Audio Codec Low Complexity
Codec ID                       : A_AAC-2
Duration                       : 1 h 30 min
Bit rate                       : 96.0 kb/s
Channel(s)                     : 2 channels
Channel layout                 : L R
Sampling rate                  : 48.0 kHz
Frame rate                     : 46.875 FPS (1024 SPF)
Compression mode               : Lossy
Delay relative to video        : -21 ms
Stream size                    : 62.4 MiB (9%)
Title                          : GOPI SAHI
Language                       : English
Default                        : No
Forced                         : No

Text
ID                             : 4
Format                         : PGS
Muxing mode                    : zlib
Codec ID                       : S_HDMV/PGS
Codec ID/Info                  : Picture based subtitle format used on BDs/HD-DVDs
Duration                       : 1 h 23 min
Bit rate                       : 19.9 kb/s
Count of elements              : 1484
Stream size                    : 11.9 MiB (2%)
Title                          : GOPI SAHI
Language                       : English
Default                        : Yes
Forced                         : No

Menu
00:00:00.000                   : :Chapter 1
00:07:27.155                   : :Chapter 2
00:13:32.854                   : :Chapter 3
00:18:45.458                   : :Chapter 4
00:24:20.125                   : :Chapter 5
00:30:55.937                   : :Chapter 6
00:37:31.291                   : :Chapter 7
00:42:02.895                   : :Chapter 8
00:48:14.975                   : :Chapter 9
00:55:03.801                   : :Chapter 10
01:00:39.761                   : :Chapter 11
01:04:28.198                   : :Chapter 12
01:08:21.514                   : :Chapter 13
01:14:52.405                   : :Chapter 14
01:21:23.212                   : :Chapter 15




MAGNET

TORRENT

TORRENT 2 ZIP FILE

GDRIVE FILE COPY

DWONLOAD AUTO START IN 20 SEC ZIP FILE

DOWNLOAD AND ONLINE DUBOX LINK = PASSWORD = ejxd

MULTIUP

MIRRORACE

MEDIAFIRE

ONLINE 720P

 

ONLINE 720P