Endless Love 2014 x264 720p Esub BluRay Dual Audio English Hindi THE GOPI SAHI

 

Endless Love (2014)

PG-13 | | Drama, Romance | 14 February 2014 (USA)
 
 
The story of a privileged girl and a charismatic boy whose instant desire sparks a love affair made only more reckless by parents trying to keep them apart.
EN

Director:

Shana Feste

Writers:

Shana Feste (screenplay), Joshua Safran (screenplay) | 1 more credit »
 
6.3/10
40,828

 

Directed byShana Feste
Produced byScott Stuber
Pamela Abdy
Josh Schwartz
Stephanie Savage
Written byShana Feste
Joshua Safran
Based onEndless Love
by Scott Spencer
Starring
Music byChristophe Beck
CinematographyAndrew Dunn
Edited byMaryann Brandon
Production
companies
Distributed byUniversal Pictures
Release date
  • February 14, 2014
Running time
105 minutes[1]
CountryUnited States
LanguageEnglish
Budget$20 million[2]
Box office$34.7 million[3]

 


Endless Love 2014 x264 720p Esub BluRay Dual Audio English Hindi THE GOPI SAHI

Format                         : Matroska
Format version                 : Version 4
File size                      : 980 MiB
Duration                       : 1 h 44 min
Overall bit rate               : 1 310 kb/s
Movie name                     : Endless Love 2014 GOPI SAHI
Encoded date                   : UTC 2021-05-17 04:08:43

Video
ID                             : 1
Format                         : AVC
Format/Info                    : Advanced Video Codec
Format profile                 : [email protected]
Format settings                : CABAC / 5 Ref Frames
Format settings, CABAC         : Yes
Format settings, Reference fra : 5 frames
Codec ID                       : V_MPEG4/ISO/AVC
Duration                       : 1 h 44 min
Bit rate                       : 899 kb/s
Width                          : 1 280 pixels
Height                         : 544 pixels
Display aspect ratio           : 2.35:1
Frame rate mode                : Constant
Frame rate                     : 23.976 (24000/1001) FPS
Color space                    : YUV
Chroma subsampling             : 4:2:0
Bit depth                      : 8 bits
Scan type                      : Progressive
Bits/(Pixel*Frame)             : 0.054
Stream size                    : 673 MiB (69%)
Title                          : GOPI SAHI
Writing library                : x264 core 157 r2935 545de2f

Audio #1
ID                             : 2
Format                         : AAC LC
Format/Info                    : Advanced Audio Codec Low Complexity
Codec ID                       : A_AAC-2
Duration                       : 1 h 44 min
Bit rate                       : 192 kb/s
Channel(s)                     : 6 channels
Channel layout                 : C L R Ls Rs LFE
Sampling rate                  : 48.0 kHz
Frame rate                     : 46.875 FPS (1024 SPF)
Compression mode               : Lossy
Delay relative to video        : -21 ms
Stream size                    : 144 MiB (15%)
Title                          : GOPI SAHI
Language                       : Hindi
Default                        : Yes
Forced                         : No

Audio #2
ID                             : 3
Format                         : AAC LC
Format/Info                    : Advanced Audio Codec Low Complexity
Codec ID                       : A_AAC-2
Duration                       : 1 h 44 min
Bit rate                       : 192 kb/s
Channel(s)                     : 6 channels
Channel layout                 : C L R Ls Rs LFE
Sampling rate                  : 48.0 kHz
Frame rate                     : 46.875 FPS (1024 SPF)
Compression mode               : Lossy
Delay relative to video        : -21 ms
Stream size                    : 144 MiB (15%)
Title                          : GOPI SAHI
Language                       : English
Default                        : No
Forced                         : No

Text #1
ID                             : 4
Format                         : PGS
Muxing mode                    : zlib
Codec ID                       : S_HDMV/PGS
Codec ID/Info                  : Picture based subtitle format used on BDs/HD-DVDs
Duration                       : 1 h 38 min
Bit rate                       : 31.2 kb/s
Count of elements              : 2894
Stream size                    : 22.0 MiB (2%)
Title                          : GOPI SAHI
Language                       : Hindi
Default                        : No
Forced                         : No

Text #2
ID                             : 5
Format                         : PGS
Muxing mode                    : zlib
Codec ID                       : S_HDMV/PGS
Codec ID/Info                  : Picture based subtitle format used on BDs/HD-DVDs
Duration                       : 1 h 38 min
Bit rate                       : 46.2 kb/s
Count of elements              : 3495
Stream size                    : 32.6 MiB (3%)
Title                          : GOPI SAHI
Language                       : English
Default                        : No
Forced                         : No

Menu
00:00:00.000                   : :Chapter 1
00:05:46.221                   : :Chapter 2
00:11:45.163                   : :Chapter 3
00:15:51.534                   : :Chapter 4
00:19:43.724                   : :Chapter 5
00:25:26.817                   : :Chapter 6
00:29:43.115                   : :Chapter 7
00:35:30.670                   : :Chapter 8
00:39:56.644                   : :Chapter 9
00:45:14.212                   : :Chapter 10
00:49:02.022                   : :Chapter 11
00:54:56.043                   : :Chapter 12
00:59:51.630                   : :Chapter 13
01:04:43.213                   : :Chapter 14
01:10:01.948                   : :Chapter 15
01:16:55.986                   : :Chapter 16
01:23:17.034                   : :Chapter 17
01:29:33.994                   : :Chapter 18
01:35:54.082                   : :Chapter 19
01:39:26.752                   : :Chapter 20




 MAGNET

TORRENT

TORRENT 2


GDRIVE FILE COPY

DWONLOAD AUTO START IN 20 SEC

DOWNLOAD AND ONLINE TERABOX LINK
= PASSWORD = k72e

MULTIUP

MIRRORACE


MEDIAFIRE

ONLINE 720P

ONLINE 720P