Hansel & Gretel- Witch Hunters 2013 Unrated x264 720p Esub BluRay Dual Audio English Hindi THE GOPI SAHI

Hansel & Gretel: Witch Hunters (2013)

 
 
Brother-sister duo Hansel and Gretel are professional witch hunters who help innocent villagers. But they soon stumble upon a case that could hold the key to their past.
EN
6.1/10
196,609
Directed byTommy Wirkola
Produced by
Written byTommy Wirkola
Based onHansel and Gretel
by The Brothers Grimm
Starring
Music byAtli Örvarsson
CinematographyMichael Bonvillain
Edited byJim Page
Production
companies
Distributed byParamount Pictures
Release date
  • January 25, 2013 (United States)
  • February 28, 2013 (Germany)
Running time
88 minutes[3]
Countries
LanguageEnglish
Budget$50 million[4]
Box office$226.3 million[4]

 


Hansel & Gretel- Witch Hunters 2013 Unrated x264 720p Esub BluRay Dual Audio English Hindi THE GOPI SAHI


Format                         : Matroska
Format version                 : Version 4
File size                      : 771 MiB
Duration                       : 1 h 37 min
Overall bit rate               : 1 101 kb/s
Movie name                     : Hansel & Gretel: Witch Hunters 2013 Unrated GOPI SAHI
Encoded date                   : UTC 2021-02-03 13:43:44

Video
ID                             : 1
Format                         : AVC
Format/Info                    : Advanced Video Codec
Format profile                 : [email protected]
Format settings                : CABAC / 5 Ref Frames
Format settings, CABAC         : Yes
Format settings, Reference fra : 5 frames
Codec ID                       : V_MPEG4/ISO/AVC
Duration                       : 1 h 37 min
Bit rate                       : 899 kb/s
Width                          : 1 280 pixels
Height                         : 534 pixels
Display aspect ratio           : 2.40:1
Frame rate mode                : Constant
Frame rate                     : 23.976 (24000/1001) FPS
Color space                    : YUV
Chroma subsampling             : 4:2:0
Bit depth                      : 8 bits
Scan type                      : Progressive
Bits/(Pixel*Frame)             : 0.055
Stream size                    : 630 MiB (82%)
Title                          : GOPI SAHI
Writing library                : x264 core 157 r2935 545de2f

Audio #1
ID                             : 2
Format                         : AAC LC
Format/Info                    : Advanced Audio Codec Low Complexity
Codec ID                       : A_AAC-2
Duration                       : 1 h 37 min
Bit rate                       : 96.0 kb/s
Channel(s)                     : 2 channels
Channel layout                 : L R
Sampling rate                  : 48.0 kHz
Frame rate                     : 46.875 FPS (1024 SPF)
Compression mode               : Lossy
Delay relative to video        : -21 ms
Stream size                    : 67.5 MiB (9%)
Title                          : GOPI SAHI
Language                       : Hindi
Default                        : Yes
Forced                         : No

Audio #2
ID                             : 3
Format                         : AAC LC
Format/Info                    : Advanced Audio Codec Low Complexity
Codec ID                       : A_AAC-2
Duration                       : 1 h 37 min
Bit rate                       : 96.0 kb/s
Channel(s)                     : 2 channels
Channel layout                 : L R
Sampling rate                  : 48.0 kHz
Frame rate                     : 46.875 FPS (1024 SPF)
Compression mode               : Lossy
Delay relative to video        : -21 ms
Stream size                    : 67.5 MiB (9%)
Title                          : GOPI SAHI
Language                       : English
Default                        : No
Forced                         : No

Text
ID                             : 4
Format                         : PGS
Muxing mode                    : zlib
Codec ID                       : S_HDMV/PGS
Codec ID/Info                  : Picture based subtitle format used on BDs/HD-DVDs
Duration                       : 1 h 29 min
Bit rate                       : 22.8 kb/s
Count of elements              : 1810
Stream size                    : 14.6 MiB (2%)
Title                          : GOPI SAHI
Language                       : English
Default                        : Yes
Forced                         : Yes

Menu
00:00:00.000                   : :Chapter 1
00:09:02.417                   : :Chapter 2
00:16:12.805                   : :Chapter 3
00:26:24.958                   : :Chapter 4
00:35:18.033                   : :Chapter 5
00:46:34.834                   : :Chapter 6
00:57:17.726                   : :Chapter 7
01:04:26.279                   : :Chapter 8
01:09:44.389                   : :Chapter 9
01:14:10.571                   : :Chapter 10
01:22:05.003                   : :Chapter 11
01:29:02.420                   : :Chapter 12




MAGNET

TORRENT

TORRENT 2

GDRIVE FILE COPY

DWONLOAD AUTO START IN 20 SEC


DOWNLOAD AND ONLINE TERABOX LINK = PASSWORD = q126

MULTIUP


MIRRORACE

MEDIAFIRE

ONLINE 720P

ONLINE 720P