Home 2015 x264 720p Esub BluRay Dual Audio English Hindi THE GOPI SAHI

 

Home (2015)

 

An alien on the run from his own people makes friends with a girl. He tries to help her on her quest, but can be an interference.

Director:

Tim Johnson

Writers:

Tom J. Astle (screenplay by), Matt Ember (screenplay by) | 1 more credit »
 
6.6/10
93,312

 

Directed byTim Johnson
Produced by
Screenplay by
  • Tom J. Astle
  • Matt Ember
Based onThe True Meaning of Smekday
by Adam Rex
Starring
Music byLorne Balfe[1]
Stargate
Edited byNick Fletcher
Production
company
Distributed by20th Century Fox[N 1]
Release date
  • March 7, 2015 (BIFF)
  • March 27, 2015 (United States)
Running time
94 minutes[2]
CountryUnited States
LanguageEnglish
Budget$135 million[3]
Box office$385 million[3]

 Home 2015 x264 720p Esub BluRay Dual Audio English Hindi THE GOPI SAHI

Format                         : Matroska
Format version                 : Version 4
File size                      : 874 MiB
Duration                       : 1 h 34 min
Overall bit rate               : 1 298 kb/s
Movie name                     : Home 2015 GOPI SAHI
Encoded date                   : UTC 2021-05-16 09:16:18

Video
ID                             : 1
Format                         : AVC
Format/Info                    : Advanced Video Codec
Format profile                 : [email protected]
Format settings                : CABAC / 5 Ref Frames
Format settings, CABAC         : Yes
Format settings, Reference fra : 5 frames
Codec ID                       : V_MPEG4/ISO/AVC
Duration                       : 1 h 33 min
Bit rate                       : 899 kb/s
Width                          : 1 280 pixels
Height                         : 694 pixels
Display aspect ratio           : 1.85:1
Frame rate mode                : Constant
Frame rate                     : 23.976 (24000/1001) FPS
Color space                    : YUV
Chroma subsampling             : 4:2:0
Bit depth                      : 8 bits
Scan type                      : Progressive
Bits/(Pixel*Frame)             : 0.042
Stream size                    : 603 MiB (69%)
Title                          : GOPI SAHI
Writing library                : x264 core 157 r2935 545de2f

Audio #1
ID                             : 2
Format                         : AAC LC
Format/Info                    : Advanced Audio Codec Low Complexity
Codec ID                       : A_AAC-2
Duration                       : 1 h 34 min
Bit rate                       : 192 kb/s
Channel(s)                     : 6 channels
Channel layout                 : C L R Ls Rs LFE
Sampling rate                  : 48.0 kHz
Frame rate                     : 46.875 FPS (1024 SPF)
Compression mode               : Lossy
Delay relative to video        : -13 ms
Stream size                    : 129 MiB (15%)
Title                          : GOPI SAHI
Language                       : Hindi
Default                        : Yes
Forced                         : No

Audio #2
ID                             : 3
Format                         : AAC LC
Format/Info                    : Advanced Audio Codec Low Complexity
Codec ID                       : A_AAC-2
Duration                       : 1 h 33 min
Bit rate                       : 192 kb/s
Channel(s)                     : 6 channels
Channel layout                 : C L R Ls Rs LFE
Sampling rate                  : 48.0 kHz
Frame rate                     : 46.875 FPS (1024 SPF)
Compression mode               : Lossy
Delay relative to video        : -21 ms
Stream size                    : 129 MiB (15%)
Title                          : GOPI SAHI
Language                       : English
Default                        : No
Forced                         : No

Text #1
ID                             : 4
Format                         : PGS
Muxing mode                    : zlib
Codec ID                       : S_HDMV/PGS
Codec ID/Info                  : Picture based subtitle format used on BDs/HD-DVDs
Duration                       : 1 h 32 min
Bit rate                       : 22.3 kb/s
Count of elements              : 2312
Stream size                    : 14.8 MiB (2%)
Title                          : GOPI SAHI
Language                       : Hindi
Default                        : No
Forced                         : No

Text #2
ID                             : 5
Format                         : PGS
Muxing mode                    : zlib
Codec ID                       : S_HDMV/PGS
Codec ID/Info                  : Picture based subtitle format used on BDs/HD-DVDs
Duration                       : 1 h 23 min
Bit rate                       : 32.8 kb/s
Count of elements              : 2280
Stream size                    : 19.5 MiB (2%)
Title                          : GOPI SAHI
Language                       : English
Default                        : No
Forced                         : No

Menu
00:00:00.000                   : :Chapter 1
00:03:43.890                   : :Chapter 2
00:07:28.406                   : :Chapter 3
00:11:19.721                   : :Chapter 4
00:14:26.949                   : :Chapter 5
00:17:58.953                   : :Chapter 6
00:21:05.639                   : :Chapter 7
00:25:19.018                   : :Chapter 8
00:29:07.079                   : :Chapter 9
00:33:14.659                   : :Chapter 10
00:38:59.170                   : :Chapter 11
00:41:31.155                   : :Chapter 12
00:44:27.665                   : :Chapter 13
00:46:51.058                   : :Chapter 14
00:51:34.800                   : :Chapter 15
00:56:25.924                   : :Chapter 16
01:00:43.682                   : :Chapter 17
01:03:53.538                   : :Chapter 18
01:06:57.722                   : :Chapter 19
01:09:44.389                   : :Chapter 20
01:13:55.932                   : :Chapter 21
01:18:11.770                   : :Chapter 22
01:21:55.369                   : :Chapter 23
01:23:56.156                   : :Chapter 24