Kuriya Jawan Bapu Preshaan 2021 x264 720p WebHD Esub Punjabi THE GOPI SAHI

Kuriyan Jawan Bapu Preshaan (2021)

 
 
This film based on a person, who is surrounded by people, who always diverts father's thoughts, to doubt on his own daughter. But daughters prove everyone wrong and show that girls are not less than anyone.
EN

Director:

Avtar Singh

Writer:

Aman Sidhu
 
8.0/10

13

 

 


Kuriya .Jawan Bapu Preshaan 2021 x264 720p WebHD Esub Punjabi THE GOPI SAHI


Format                         : Matroska
Format version                 : Version 4
File size                      : 754 MiB
Duration                       : 1 h 45 min
Overall bit rate               : 997 kb/s
Movie name                     : Kuriya .Jawan Bapu Preshaan 2021 GOPI SAHI
Encoded date                   : UTC 2021-05-05 01:27:04

Video
ID                             : 1
Format                         : AVC
Format/Info                    : Advanced Video Codec
Format profile                 : [email protected]
Format settings                : CABAC / 5 Ref Frames
Format settings, CABAC         : Yes
Format settings, Reference fra : 5 frames
Codec ID                       : V_MPEG4/ISO/AVC
Duration                       : 1 h 45 min
Bit rate                       : 899 kb/s
Width                          : 1 280 pixels
Height                         : 544 pixels
Display aspect ratio           : 2.35:1
Frame rate mode                : Constant
Frame rate                     : 24.000 FPS
Color space                    : YUV
Chroma subsampling             : 4:2:0
Bit depth                      : 8 bits
Scan type                      : Progressive
Bits/(Pixel*Frame)             : 0.054
Stream size                    : 680 MiB (90%)
Title                          : GOPI SAHI
Writing library                : x264 core 157 r2935 545de2f

Audio
ID                             : 2
Format                         : AAC LC
Format/Info                    : Advanced Audio Codec Low Complexity
Codec ID                       : A_AAC-2
Duration                       : 1 h 45 min
Bit rate                       : 96.0 kb/s
Channel(s)                     : 2 channels
Channel layout                 : L R
Sampling rate                  : 48.0 kHz
Frame rate                     : 46.875 FPS (1024 SPF)
Compression mode               : Lossy
Delay relative to video        : -21 ms
Stream size                    : 72.5 MiB (10%)
Title                          : GOPI SAHI
Language                       : Panjabi
Default                        : Yes
Forced                         : No

Text
ID                             : 3
Format                         : UTF-8
Codec ID                       : S_TEXT/UTF8
Codec ID/Info                  : UTF-8 Plain Text
Duration                       : 1 h 43 min
Bit rate                       : 59 b/s
Count of elements              : 1537
Stream size                    : 45.6 KiB (0%)
Title                          : GOPI SAHI
Language                       : English
Default                        : Yes
Forced                         : No


 

MAGNET

TORRENT

TORRENT 2 ZIP FILE

GDRIVE FILE COPY


DWONLOAD AUTO START IN 20 SEC ZIP FILE

DOWNLOAD AND ONLINE DUBOX LINK = PASSWORD = ar2a

MULTIUP

MIRRORACE

DOSYA

MEDIAFIRE

ONLINE 720P