Liar Liar 1997 x264 720p Esub BluRay Dual Audio English Hindi THE GOPI SAHI

Liar Liar (1997)

PG-13 | | Comedy, Fantasy | 21 March 1997 (USA)
 
 
A fast-track lawyer can't lie for 24 hours due to his son's birthday wish after he disappoints his son for the last time.
EN

Director:

Tom Shadyac
 
6.9/10
286,067

 

Directed byTom Shadyac
Produced byBrian Grazer
Written by
Starring
Music byJohn Debney
James Newton Howard (theme)
CinematographyRussell Boyd
Edited byDon Zimmerman
Production
company
Distributed byUniversal Pictures
Release date
  • March 18, 1997 (Hollywood)
  • March 21, 1997 (United States)
Running time
86 minutes[3]
CountryUnited States
LanguageEnglish
Budget$45 million[4]
Box office$302.7 million[3]

 


Liar Liar 1997 x264 720p Esub BluRay Dual Audio English Hindi THE GOPI SAHI


Format                         : Matroska
Format version                 : Version 4
File size                      : 810 MiB
Duration                       : 1 h 26 min
Overall bit rate               : 1 310 kb/s
Movie name                     : Liar Liar 1997 GOPI SAHI
Encoded date                   : UTC 2021-05-14 14:16:02

Video
ID                             : 1
Format                         : AVC
Format/Info                    : Advanced Video Codec
Format profile                 : [email protected]
Format settings                : CABAC / 5 Ref Frames
Format settings, CABAC         : Yes
Format settings, Reference fra : 5 frames
Codec ID                       : V_MPEG4/ISO/AVC
Duration                       : 1 h 26 min
Bit rate                       : 899 kb/s
Width                          : 1 280 pixels
Height                         : 694 pixels
Display aspect ratio           : 1.85:1
Frame rate mode                : Constant
Frame rate                     : 23.976 (24000/1001) FPS
Color space                    : YUV
Chroma subsampling             : 4:2:0
Bit depth                      : 8 bits
Scan type                      : Progressive
Bits/(Pixel*Frame)             : 0.042
Stream size                    : 556 MiB (69%)
Title                          : GOPI SAHI
Writing library                : x264 core 157 r2935 545de2f

Audio #1
ID                             : 2
Format                         : AAC LC
Format/Info                    : Advanced Audio Codec Low Complexity
Codec ID                       : A_AAC-2
Duration                       : 1 h 26 min
Bit rate                       : 192 kb/s
Channel(s)                     : 6 channels
Channel layout                 : C L R Ls Rs LFE
Sampling rate                  : 48.0 kHz
Frame rate                     : 46.875 FPS (1024 SPF)
Compression mode               : Lossy
Delay relative to video        : 1 s 573 ms
Stream size                    : 119 MiB (15%)
Title                          : GOPI SAHI
Language                       : Hindi
Default                        : Yes
Forced                         : No

Audio #2
ID                             : 3
Format                         : AAC LC
Format/Info                    : Advanced Audio Codec Low Complexity
Codec ID                       : A_AAC-2
Duration                       : 1 h 26 min
Bit rate                       : 192 kb/s
Channel(s)                     : 6 channels
Channel layout                 : C L R Ls Rs LFE
Sampling rate                  : 48.0 kHz
Frame rate                     : 46.875 FPS (1024 SPF)
Compression mode               : Lossy
Delay relative to video        : -21 ms
Stream size                    : 119 MiB (15%)
Title                          : GOPI SAHI
Language                       : English
Default                        : No
Forced                         : No

Text #1
ID                             : 4
Format                         : PGS
Muxing mode                    : zlib
Codec ID                       : S_HDMV/PGS
Codec ID/Info                  : Picture based subtitle format used on BDs/HD-DVDs
Duration                       : 1 h 22 min
Bit rate                       : 35.3 kb/s
Count of elements              : 2364
Stream size                    : 20.7 MiB (3%)
Title                          : GOPI SAHI
Language                       : Hindi
Default                        : Yes
Forced                         : Yes

Text #2
ID                             : 5
Format                         : PGS
Muxing mode                    : zlib
Codec ID                       : S_HDMV/PGS
Codec ID/Info                  : Picture based subtitle format used on BDs/HD-DVDs
Duration                       : 1 h 22 min
Bit rate                       : 44.3 kb/s
Count of elements              : 2453
Stream size                    : 26.0 MiB (3%)
Title                          : GOPI SAHI
Language                       : English
Default                        : No
Forced                         : No

Menu
00:00:00.000                   : :Chapter 1
00:13:41.612                   : :Chapter 2
00:18:46.500                   : :Chapter 3
00:20:10.918                   : :Chapter 4
00:22:30.182                   : :Chapter 5
00:26:34.051                   : :Chapter 6
00:32:59.728                   : :Chapter 7
00:38:16.085                   : :Chapter 8
00:41:59.058                   : :Chapter 9
00:45:52.959                   : :Chapter 10
00:49:25.004                   : :Chapter 11
00:53:10.729                   : :Chapter 12
00:57:07.758                   : :Chapter 13
01:11:07.847                   : :Chapter 14
01:16:03.768                   : :Chapter 15
01:20:40.461                   : :Chapter 16