Life 1999 x264 720p Esub BluRay Dual Audio English Hindi THE GOPI SAHI

Directed byTed Demme  
Produced byBrian Grazer
Eddie Murphy
Written byRobert Ramsey
Matthew Stone
Starring
Music byR. Kelly
Wyclef Jean
CinematographyGeoffrey Simpson
Edited byJeffrey Wolf
Production
company
Distributed byUniversal Pictures
Release date
  • April 16, 1999
Running time
109 minutes
CountryUnited States
LanguageEnglish
Budget$80 million
Box office$73.3 million ;' 

 



 Life 1999 x264 720p Esub BluRay Dual Audio English Hindi THE GOPI SAHI


Format                         : Matroska
Format version                 : Version 4
File size                      : 1 011 MiB
Duration                       : 1 h 48 min
Overall bit rate               : 1 302 kb/s
Movie name                     : Life 1999 GOPI SAHI
Encoded date                   : UTC 2021-05-18 16:20:11


Video
ID                             : 1
Format                         : AVC
Format/Info                    : Advanced Video Codec
Format profile                 : [email protected]
Format settings                : CABAC / 5 Ref Frames
Format settings, CABAC         : Yes
Format settings, Reference fra : 5 frames
Codec ID                       : V_MPEG4/ISO/AVC
Duration                       : 1 h 48 min
Bit rate                       : 899 kb/s
Width                          : 1 280 pixels
Height                         : 694 pixels
Display aspect ratio           : 1.85:1
Frame rate mode                : Constant
Frame rate                     : 23.976 (24000/1001) FPS
Color space                    : YUV
Chroma subsampling             : 4:2:0
Bit depth                      : 8 bits
Scan type                      : Progressive
Bits/(Pixel*Frame)             : 0.042
Stream size                    : 697 MiB (69%)
Title                          : GOPI SAHI
Writing library                : x264 core 157 r2935 545de2f

Audio #1
ID                             : 2
Format                         : AAC LC
Format/Info                    : Advanced Audio Codec Low Complexity
Codec ID                       : A_AAC-2
Duration                       : 1 h 48 min
Bit rate                       : 192 kb/s
Channel(s)                     : 6 channels
Channel layout                 : C L R Ls Rs LFE
Sampling rate                  : 48.0 kHz
Frame rate                     : 46.875 FPS (1024 SPF)
Compression mode               : Lossy
Delay relative to video        : -13 ms
Stream size                    : 149 MiB (15%)
Title                          : GOPI SAHI
Language                       : Hindi
Default                        : Yes
Forced                         : No

Audio #2
ID                             : 3
Format                         : AAC LC
Format/Info                    : Advanced Audio Codec Low Complexity
Codec ID                       : A_AAC-2
Duration                       : 1 h 48 min
Bit rate                       : 192 kb/s
Channel(s)                     : 6 channels
Channel layout                 : C L R Ls Rs LFE
Sampling rate                  : 48.0 kHz
Frame rate                     : 46.875 FPS (1024 SPF)
Compression mode               : Lossy
Delay relative to video        : -21 ms
Stream size                    : 149 MiB (15%)
Title                          : GOPI SAHI
Language                       : English
Default                        : No
Forced                         : No

Text #1
ID                             : 4
Format                         : PGS
Muxing mode                    : zlib
Codec ID                       : S_HDMV/PGS
Codec ID/Info                  : Picture based subtitle format used on BDs/HD-DVDs
Duration                       : 1 h 47 min
Bit rate                       : 244 b/s
Count of elements              : 32
Stream size                    : 192 KiB (0%)
Title                          : GOPI SAHI
Language                       : Hindi
Default                        : Yes
Forced                         : Yes

Text #2
ID                             : 5
Format                         : PGS
Muxing mode                    : zlib
Codec ID                       : S_HDMV/PGS
Codec ID/Info                  : Picture based subtitle format used on BDs/HD-DVDs
Duration                       : 1 h 43 min
Bit rate                       : 60.8 kb/s
Count of elements              : 3982
Stream size                    : 45.0 MiB (4%)
Title                          : GOPI SAHI
Language                       : English
Default                        : No
Forced                         : No

Menu
00:00:00.000                   : :Chapter 1
00:02:24.978                   : :Chapter 2
00:04:01.658                   : :Chapter 3
00:08:24.421                   : :Chapter 4
00:11:23.183                   : :Chapter 5
00:16:29.614                   : :Chapter 6
00:25:46.295                   : :Chapter 7
00:30:10.183                   : :Chapter 8
00:38:33.478                   : :Chapter 9
00:47:56.457                   : :Chapter 10
00:51:09.400                   : :Chapter 11
00:58:11.571                   : :Chapter 12
01:05:45.150                   : :Chapter 13
01:08:36.446                   : :Chapter 14
01:18:16.525                   : :Chapter 15
01:29:53.221                   : :Chapter 16
01:36:42.297                   : :Chapter 17
01:42:58.255                   : :Chapter 18




MAGNET

TORRENT


TORRENT 2

GDRIVE FILE COPY

DWONLOAD AUTO START IN 20 SEC

DOWNLOAD AND ONLINE TERABOX LINK = PASSWORD = 3ic1

DWONLOAD AUTO START IN 20 SEC ZIP FILE


612 MB 480P DWONLOAD AUTO START IN 20 SEC

MULTIUP

MIRRORACE


MEDIAFIRE

ONLINE 720P

ONLINE 720P

 

Post a Comment

0 Comments