Ma 2019 x264 720p WebHD Esub 5.1 Dual Audio English Hindi THE GOPI SAHI

 

Ma (2019)

 
 
A lonely woman befriends a group of teenagers and decides to let them party at her house. Just when the kids think their luck couldn't get any better, things start happening that make them question the intention of their host.
EN

Director:

Tate Taylor

Writer:

Scotty Landes
 
5.6/10
43,153

 

Directed byTate Taylor
Produced by
Screenplay by
  • Scotty Landes
  • Tate Taylor
Story byScotty Landes
Starring
Music byGregory Tripi
CinematographyChristina Voros
Edited by
  • Lucy Donaldson
  • Jin Lee
Production
companies
Distributed byUniversal Pictures
Release date
  • May 31, 2019 (United States)
Running time
99 minutes
CountryUnited States
LanguageEnglish
Budget$5 million[1]
Box office$61.2 million[1]

 


Ma 2019 x264 720p WebHD Esub 5.1 Dual Audio English Hindi THE GOPI SAHI


Format                         : Matroska
Format version                 : Version 4
File size                      : 914 MiB
Duration                       : 1 h 39 min
Overall bit rate               : 1 286 kb/s
Movie name                     : Ma 2019 GOPI SAHI
Encoded date                   : UTC 2021-05-02 01:01:27

Video
ID                             : 1
Format                         : AVC
Format/Info                    : Advanced Video Codec
Format profile                 : [email protected]
Format settings                : CABAC / 5 Ref Frames
Format settings, CABAC         : Yes
Format settings, Reference fra : 5 frames
Codec ID                       : V_MPEG4/ISO/AVC
Duration                       : 1 h 39 min
Bit rate                       : 899 kb/s
Width                          : 1 280 pixels
Height                         : 536 pixels
Display aspect ratio           : 2.40:1
Frame rate mode                : Constant
Frame rate                     : 23.976 (24000/1001) FPS
Color space                    : YUV
Chroma subsampling             : 4:2:0
Bit depth                      : 8 bits
Scan type                      : Progressive
Bits/(Pixel*Frame)             : 0.055
Stream size                    : 639 MiB (70%)
Title                          : GOPI SAHI
Writing library                : x264 core 157 r2935 545de2f

Audio #1
ID                             : 2
Format                         : AAC LC
Format/Info                    : Advanced Audio Codec Low Complexity
Codec ID                       : A_AAC-2
Duration                       : 1 h 39 min
Bit rate                       : 192 kb/s
Channel(s)                     : 6 channels
Channel layout                 : C L R Ls Rs LFE
Sampling rate                  : 48.0 kHz
Frame rate                     : 46.875 FPS (1024 SPF)
Compression mode               : Lossy
Delay relative to video        : -21 ms
Stream size                    : 137 MiB (15%)
Title                          : GOPI SAHI
Language                       : Hindi
Default                        : Yes
Forced                         : No

Audio #2
ID                             : 3
Format                         : AAC LC
Format/Info                    : Advanced Audio Codec Low Complexity
Codec ID                       : A_AAC-2
Duration                       : 1 h 39 min
Bit rate                       : 192 kb/s
Channel(s)                     : 6 channels
Channel layout                 : C L R Ls Rs LFE
Sampling rate                  : 48.0 kHz
Frame rate                     : 46.875 FPS (1024 SPF)
Compression mode               : Lossy
Delay relative to video        : -21 ms
Stream size                    : 137 MiB (15%)
Title                          : GOPI SAHI
Language                       : English
Default                        : No
Forced                         : No

Text
ID                             : 4
Format                         : UTF-8
Codec ID                       : S_TEXT/UTF8
Codec ID/Info                  : UTF-8 Plain Text
Duration                       : 1 h 38 min
Bit rate                       : 72 b/s
Count of elements              : 1572
Stream size                    : 52.0 KiB (0%)
Title                          : GOPI SAHI
Language                       : English




 MAGNET

TORRENT

TORRENT 2 ZIP FILE

GDRIVE FILE COPY

DWONLOAD AUTO START IN 20 SEC ZIP FILE

DOWNLOAD AND ONLINE DUBOX LINK
= PASSWORD = 7d72

MULTIUP

MIRRORACE

MEDIAFIRE

ONLINE 720P

 

Post a comment

0 Comments