Meet The Fockers 2004 x264 720p Esub BluRay Dual Audio English Hindi THE GOPI SAHI

 

Meet the Fockers (2004)

PG-13 12/22/2004 (US) ComedyRomance 1h 55m 
 

Misery loves family.

Overview

Hard-to-crack ex-CIA man, Jack Byrnes and his wife, Dina head for the warmer climes of Florida to meet son-in-law-to-be, Greg Focker's parents. Unlike their happily matched offspring, the future in-laws find themselves in a situation of opposites that definitely do not attract.

Directed byJay Roach
Produced byJane Rosenthal
Robert De Niro
Jay Roach
Screenplay byJim Herzfeld
John Hamburg
Story byJim Herzfeld
Marc Hyman
Based onCharacters
by Greg Glienna
Mary Ruth Clarke
StarringRobert De Niro
Ben Stiller
Dustin Hoffman
Barbra Streisand
Blythe Danner
Teri Polo
Music byRandy Newman
CinematographyJohn Schwartzman
Edited byJon Poll
Lee Haxall
Production
companies
Tribeca Productions
Everyman Pictures
Distributed byUniversal Pictures (North America)
DreamWorks Pictures (International)
Release date
  • December 22, 2004
Running time
115 minutes
CountryUnited States
LanguageEnglish
Budget$80 million
Box office$522.7 million[1]
 


Meet The Fockers 2004 x264 720p Esub BluRay Dual Audio English Hindi THE GOPI SAHI

Format                         : Matroska
Format version                 : Version 4
File size                      : 1.05 GiB
Duration                       : 1 h 56 min
Overall bit rate               : 1 296 kb/s
Movie name                     : Meet The Fockers 2004 GOPI SAHI
Encoded date                   : UTC 2021-05-25 12:48:39

Video
ID                             : 1
Format                         : AVC
Format/Info                    : Advanced Video Codec
Format profile                 : [email protected]
Format settings                : CABAC / 5 Ref Frames
Format settings, CABAC         : Yes
Format settings, Reference fra : 5 frames
Codec ID                       : V_MPEG4/ISO/AVC
Duration                       : 1 h 55 min
Bit rate                       : 899 kb/s
Width                          : 1 280 pixels
Height                         : 714 pixels
Display aspect ratio           : 16:9
Frame rate mode                : Constant
Frame rate                     : 23.976 (24000/1001) FPS
Color space                    : YUV
Chroma subsampling             : 4:2:0
Bit depth                      : 8 bits
Scan type                      : Progressive
Bits/(Pixel*Frame)             : 0.041
Stream size                    : 741 MiB (69%)
Title                          : GOPI SAHI
Writing library                : x264 core 157 r2935 545de2f

Audio #1
ID                             : 2
Format                         : AAC LC
Format/Info                    : Advanced Audio Codec Low Complexity
Codec ID                       : A_AAC-2
Duration                       : 1 h 56 min
Bit rate                       : 192 kb/s
Channel(s)                     : 6 channels
Channel layout                 : C L R Ls Rs LFE
Sampling rate                  : 48.0 kHz
Frame rate                     : 46.875 FPS (1024 SPF)
Compression mode               : Lossy
Delay relative to video        : -21 ms
Stream size                    : 159 MiB (15%)
Title                          : GOPI SAHI
Language                       : Hindi
Default                        : Yes
Forced                         : No

Audio #2
ID                             : 3
Format                         : AAC LC
Format/Info                    : Advanced Audio Codec Low Complexity
Codec ID                       : A_AAC-2
Duration                       : 1 h 55 min
Bit rate                       : 192 kb/s
Channel(s)                     : 6 channels
Channel layout                 : C L R Ls Rs LFE
Sampling rate                  : 48.0 kHz
Frame rate                     : 46.875 FPS (1024 SPF)
Compression mode               : Lossy
Delay relative to video        : -21 ms
Stream size                    : 158 MiB (15%)
Title                          : GOPI SAHI
Language                       : English
Default                        : No
Forced                         : No

Text #1
ID                             : 4
Format                         : PGS
Muxing mode                    : zlib
Codec ID                       : S_HDMV/PGS
Codec ID/Info                  : Picture based subtitle format used on BDs/HD-DVDs
Duration                       : 1 h 54 min
Bit rate                       : 71.7 kb/s
Count of elements              : 3681
Stream size                    : 58.6 MiB (5%)
Title                          : GOPI SAHI
Language                       : English
Default                        : Yes
Forced                         : No

Text #2
ID                             : 5
Format                         : PGS
Muxing mode                    : zlib
Codec ID                       : S_HDMV/PGS
Codec ID/Info                  : Picture based subtitle format used on BDs/HD-DVDs
Duration                       : 1 h 49 min
Bit rate                       : 383 b/s
Count of elements              : 62
Stream size                    : 308 KiB (0%)
Title                          : GOPI SAHI
Language                       : Hindi
Default                        : No
Forced                         : No

Menu
00:00:00.000                   : :Chapter 1
00:06:14.416                   : :Chapter 2
00:14:37.460                   : :Chapter 3
00:20:13.003                   : :Chapter 4
00:26:22.790                   : :Chapter 5
00:31:20.587                   : :Chapter 6
00:35:50.315                   : :Chapter 7
00:38:21.591                   : :Chapter 8
00:46:46.220                   : :Chapter 9
00:51:25.666                   : :Chapter 10
00:57:54.054                   : :Chapter 11
01:03:58.501                   : :Chapter 12
01:11:30.286                   : :Chapter 13
01:16:01.307                   : :Chapter 14
01:20:24.236                   : :Chapter 15
01:24:46.790                   : :Chapter 16
01:30:23.835                   : :Chapter 17
01:35:53.623                   : :Chapter 18
01:44:45.279                   : :Chapter 19
01:50:17.736                   : :Chapter 20 





 MAGNET

TORRENT

TORRENT 2 480P AND 720P CHOOSE WHICH ONE DWONLOAD


GDRIVE FILE COPY

DWONLOAD AUTO START IN 20 SEC

DOWNLOAD AND ONLINE TERABOX LINK = PASSWORD = 2kt2

DWONLOAD AUTO START IN 20 SEC ZIP FILE


647 MB HINDI 480P DWONLOAD AUTO START IN 20 SEC


MULTIUP

MIRRORACE

MEDIAFIRE

ONLINE 720P

ONLINE 720P