Mercury Rising 1998 x264 720p Esub BluRay Dual Audio English Hindi THE GOPI SAHI

 

Mercury Rising (1998)

 
 
Shadowy elements in the NSA target a nine-year old autistic savant for death when he is able to decipher a top secret code.
EN

Director:

Harold Becker

Writers:

Ryne Douglas Pearson (novel), Lawrence Konner (screenplay) | 1 more credit »
 
Reviews
Popularity
4,397 ( 574)
Directed byHarold Becker
Produced by
Screenplay by
Based onSimple Simon
by Ryne Douglas Pearson
Starring
Music by
CinematographyMichael Seresin
Edited byPeter Honess
Production
company
Distributed byUniversal Pictures
Release date
  • April 3, 1998 (United States)
Running time
111 minutes
CountryUnited States
LanguageEnglish
Budget$60 million[1]
Box office$93.1 million[2]

 

Mercury Rising 1998 x264 720p Esub BluRay Dual Audio English Hindi THE GOPI SAHI

Format                         : Matroska
Format version                 : Version 4
File size                      : 1.02 GiB
Duration                       : 1 h 51 min
Overall bit rate               : 1 305 kb/s
Movie name                     : Mercury Rising 1998 GOPI SAHI
Encoded date                   : UTC 2021-05-07 01:18:54
Writing application            : mkvmerge v56.1.0 ('My Friend') 64-bit
Writing library                : libebml v1.4.2 + libmatroska v1.6.4

Video
ID                             : 1
Format                         : AVC
Format/Info                    : Advanced Video Codec
Format profile                 : [email protected]
Format settings                : CABAC / 5 Ref Frames
Format settings, CABAC         : Yes
Format settings, Reference fra : 5 frames
Codec ID                       : V_MPEG4/ISO/AVC
Duration                       : 1 h 51 min
Bit rate                       : 899 kb/s
Width                          : 1 280 pixels
Height                         : 542 pixels
Display aspect ratio           : 2.35:1
Frame rate mode                : Constant
Frame rate                     : 23.976 (24000/1001) FPS
Color space                    : YUV
Chroma subsampling             : 4:2:0
Bit depth                      : 8 bits
Scan type                      : Progressive
Bits/(Pixel*Frame)             : 0.054
Stream size                    : 716 MiB (69%)
Title                          : GOPI SAHI
Writing library                : x264 core 157 r2935 545de2f

Audio #1
ID                             : 2
Format                         : AAC LC
Format/Info                    : Advanced Audio Codec Low Complexity
Codec ID                       : A_AAC-2
Duration                       : 1 h 51 min
Bit rate                       : 192 kb/s
Channel(s)                     : 6 channels
Channel layout                 : C L R Ls Rs LFE
Sampling rate                  : 48.0 kHz
Frame rate                     : 46.875 FPS (1024 SPF)
Compression mode               : Lossy
Delay relative to video        : 1 s 378 ms
Stream size                    : 153 MiB (15%)
Title                          : GOPI SAHI
Language                       : Hindi
Default                        : Yes
Forced                         : No

Audio #2
ID                             : 3
Format                         : AAC LC
Format/Info                    : Advanced Audio Codec Low Complexity
Codec ID                       : A_AAC-2
Duration                       : 1 h 51 min
Bit rate                       : 192 kb/s
Channel(s)                     : 6 channels
Channel layout                 : C L R Ls Rs LFE
Sampling rate                  : 48.0 kHz
Frame rate                     : 46.875 FPS (1024 SPF)
Compression mode               : Lossy
Delay relative to video        : -21 ms
Stream size                    : 153 MiB (15%)
Title                          : GOPI SAHI
Language                       : English
Default                        : No
Forced                         : No

Text #1
ID                             : 4
Format                         : PGS
Muxing mode                    : zlib
Codec ID                       : S_HDMV/PGS
Codec ID/Info                  : Picture based subtitle format used on BDs/HD-DVDs
Duration                       : 1 h 49 min
Bit rate                       : 25.8 kb/s
Count of elements              : 2600
Stream size                    : 20.3 MiB (2%)
Title                          : GOPI SAHI
Language                       : Hindi
Default                        : Yes
Forced                         : Yes

Text #2
ID                             : 5
Format                         : PGS
Muxing mode                    : zlib
Codec ID                       : S_HDMV/PGS
Codec ID/Info                  : Picture based subtitle format used on BDs/HD-DVDs
Duration                       : 1 h 42 min
Bit rate                       : 37.0 kb/s
Count of elements              : 2802
Stream size                    : 27.2 MiB (3%)
Title                          : GOPI SAHI
Language                       : English
Default                        : No
Forced                         : No

Menu
00:00:00.000                   : :Chapter 1
00:08:45.358                   : :Chapter 2
00:09:41.581                   : :Chapter 3
00:11:19.554                   : :Chapter 4
00:14:16.814                   : :Chapter 5
00:20:00.866                   : :Chapter 6
00:23:35.414                   : :Chapter 7
00:28:00.095                   : :Chapter 8
00:30:51.391                   : :Chapter 9
00:35:19.034                   : :Chapter 10
00:38:59.254                   : :Chapter 11
00:43:10.713                   : :Chapter 12
00:47:39.982                   : :Chapter 13
00:48:51.387                   : :Chapter 14
00:50:38.285                   : :Chapter 15
00:53:38.966                   : :Chapter 16
00:56:18.250                   : :Chapter 17
01:00:49.855                   : :Chapter 18
01:02:39.965                   : :Chapter 19
01:06:01.249                   : :Chapter 20
01:07:53.194                   : :Chapter 21
01:09:35.004                   : :Chapter 22
01:13:33.618                   : :Chapter 23
01:16:21.869                   : :Chapter 24
01:19:52.913                   : :Chapter 25
01:23:31.673                   : :Chapter 26
01:29:07.175                   : :Chapter 27
01:34:56.357                   : :Chapter 28
01:37:55.578                   : :Chapter 29
01:40:44.747                   : :Chapter 30
01:42:50.039                   : :Chapter 31
01:43:57.898                   : :Chapter 32
01:46:36.015                   : :Chapter 33



 MAGNET

TORRENT

TORRENT 2 ZIP FILE

GDRIVE FILE COPY

DWONLOAD AUTO START IN 20 SEC ZIP FILE

DOWNLOAD AND ONLINE DUBOX LINK = PASSWORD = m1i6

MULTIUP

MIRRORACE

MEDIAFIRE

ONLINE 720P


ONLINE 720P